Торрент файл
скачать торрент магнет ссылка Добавлен: 21 дек 2017, 21:52
Размер: 3.1 ГБ
Сидеров: 25
Личеров: 3
Статус: (salma3)
Автор

СообщениеДобавлено: 21 дек 2017, 21:52 

Не в сети
Супермодератор
Аватара пользователя
Дата регистрации:
15 фев 2012, 16:44
Возраст: 28
Спасибо: 7290 / 2147
Сообщения: 70395
Год выхода: 1997
Жанр: боевик, триллер, криминал
Режиссер: Кристиан Дюге

В ролях: Эйдан Куинн, Дональд Сазерленд, Бен Кингсли, Клаудиа Ферри, Селин Бонье, Власта Врана, Лилиана Коморовска, Вон Флорес, Эл Уоксмен, Митчелл Дэвид Ротпан ...

О фильме:
Карлос Санчес, «Шакал». Многие годы этого имени было достаточно, чтобы вызвать страх у целой страны. Профессиональный террорист с холодным умом и безжалостным сердцем. Международный наемный убийца, который получал удовольствие, убивая невинных. Человек, от которого исходило зло и насилие. Ему всегда удавалось уйти. 20 лет ФБР и Моссад считали его целью номер один. И каждый раз он ускользал — как привидение в ночи. До тех пор, пока не появился Аннибал Рамирес, офицер флота, любящий муж и отец, у которого нет ничего общего с Карлосом, кроме одного: он, как две капли воды, похож на него…



Страна: Канада
Продолжительность: 01:58:59
Перевод: Профессиональный (дублированный)

Файл
Кодек: x264
Качество: WEBRip-AVC
Видео: 1024x576 (16:9), 23,976 fps, ~3269 Kbps
Аудио: AC3, 384 Kbps, 48.0 KHz, 6 ch
Субтитры: Русские (forced), Английские (SDH)

ЦитатаКто-то писал:
Видео довольно шумное и зернистое - на сколько было возможно - почистил))

General
Unique ID : 159219312502114654996586225323463864384 (0x77C8862FD34B2346FC78CE860336F040)
Complete name : F:FILMSДвойник.(1997).WEBRip-AVC.[-=DoMiNo=-].mkv
Format : Matroska
Format version : Version 4 / Version 2
File size : 3.10 GiB
Duration : 1 h 58 min
Overall bit rate : 3 727 kb/s
Movie name : Двойник
Deion : Карлос Санчес, «Шакал». Многие годы этого имени было достаточно, чтобы вызвать страх у целой страны. Профессиональный террорист с холодным умом и безжалостным сердцем. Международный наемный убийца, который получал удовольствие, убивая невинных. Человек, от которого исходило зло и насилие. / Ему всегда удавалось уйти. 20 лет ФБР и Моссад считали его целью номер один. И каждый раз он ускользал — как привидение в ночи. До тех пор, пока не появился Аннибал Рамирес, офицер флота, любящий муж и отец, у которого нет ничего общего с Карлосом, кроме одного: он, как две капли воды, похож на него…
Writing application : XviD4PSP 7.0.432 DAILY
Writing library : Lavf57.71.100
ErrorDetectionType : Per level 1
Attachments : poster.jpg
COMPOSER : Норман Корбей
COUNTRY : Канада
DATE : 1997
DIRECTOR : Кристиан Дюге
ENCODING_INFO : MATROSKA,WEBM > MKV Пользовательский / H264 > X264 CRF 19.0 Пользовательский / AC3 > COPY Безопасное
GENRE : боевик, триллер, криминал
HD_VIDEO : 1
IMDB_RATING : 6.90
ITUNEXTC : mpaa|R|400|
Language : und
MEDIA_TYPE : 9
ORIGINAL_TITLE : The Assignment
PRODUCER : Франко Баттиста, Том Берри, Жози Бернард, Джозеф Ньютон Коэн, Дэвид Саундерс, Стефан Водославски
RATING : 7.151
WRITER : Дэн Гордон, Саби Х. Шабтай

Video
ID : 1
Format : AVC
Format/Info : Advanced Video Codec
Format profile : High@L4.1
Format settings : CABAC / 11 Ref Frames
Format settings, CABAC : Yes
Format settings, ReFrames : 11 frames
Codec ID : V_MPEG4/ISO/AVC
Duration : 1 h 58 min
Bit rate : 3 269 kb/s
Width : 1 024 pixels
Height : 576 pixels
Display aspect ratio : 16:9
Frame rate mode : Constant
Frame rate : 23.976 (24000/1001) FPS
Color space : YUV
Chroma subsampling : 4:2:0
Bit depth : 8 bits
Scan type : Progressive
Bits/(Pixel*Frame) : 0.231
Stream size : 2.72 GiB (88%)
Title : RIP_BY_-=DoMiNo=-
Writing library : x264 core 152 r2851M ba24899
Encoding settings : cabac=1 / ref=11 / deblock=1:-3:-3 / analyse=0x3:0x133 / me=umh / subme=11 / psy=1 / psy_rd=1.00:0.10 / mixed_ref=1 / me_range=32 / chroma_me=1 / trellis=2 / 8x8dct=1 / cqm=0 / deadzone=21,11 / fast_pskip=1 / chroma_qp_offset=-3 / threads=6 / lookahead_threads=1 / sliced_threads=0 / nr=0 / decimate=1 / interlaced=0 / bluray_compat=0 / constrained_intra=0 / bframes=12 / b_pyramid=2 / b_adapt=2 / b_bias=0 / direct=3 / weightb=1 / open_gop=0 / weightp=2 / keyint=240 / keyint_min=24 / scenecut=40 / intra_refresh=0 / rc_lookahead=60 / rc=crf / mbtree=1 / crf=19.0 / qcomp=0.60 / qpmin=0 / qpmax=69 / qpstep=4 / ip_ratio=1.40 / aq=1:1.00
Language : English
Default : Yes
Forced : No
Color range : Limited
Color primaries : BT.709
Transfer characteristics : BT.709
Matrix coefficients : BT.709

Audio
ID : 2
Format : AC-3
Format/Info : Audio Coding 3
Codec ID : A_AC3
Duration : 1 h 58 min
Bit rate mode : Constant
Bit rate : 384 kb/s
Channel(s) : 6 channels
Channel positions : Front: L C R, Side: L R, LFE
Sampling rate : 48.0 kHz
Frame rate : 31.250 FPS (1536 SPF)
Bit depth : 16 bits
Compression mode : Lossy
Stream size : 327 MiB (10%)
Title : Dub Film lines international
Language : Russian
Service kind : Complete Main
Default : Yes
Forced : No

Text #1
ID : 3
Format : UTF-8
Codec ID : S_TEXT/UTF8
Codec ID/Info : UTF-8 Plain Text
Title : Forced
Language : Russian
Default : Yes
Forced : No

Text #2
ID : 4
Format : UTF-8
Codec ID : S_TEXT/UTF8
Codec ID/Info : UTF-8 Plain Text
Language : English
Default : No
Forced : No


_________________
Проголосуй за трекер Открытый торрент трекер - RUS-MEDIA.ORG

Проголосуй Открытый торрент трекер - RUS-MEDIA.ORG


Вернуться к началу
 Профиль Отправить личное сообщение  
 
   Похожие торренты   Автор   Торрент   Размер 
В этой теме нет новых непрочитанных сообщений. Двойник / The Assignment [боевик, триллер, криминал, 1997] WEBRip 720p, Dub

salma3

1 | 84

5.75 ГБ

В этой теме нет новых непрочитанных сообщений. Томбой / Tomboy / The Assignment [боевик, триллер, криминал, 2016] WEB-DLRip, Mvo

salma3

2457 | 485

1.37 ГБ

В этой теме нет новых непрочитанных сообщений. Томбой / Взаимный расчёт / Tomboy / The Assignment [Боевик, триллер, криминал, 2016] BDRip, Mvo

salma3

140 | 7

1.63 ГБ

В этой теме нет новых непрочитанных сообщений. Томбой / Взаимный расчёт / Tomboy / The Assignment [Боевик, триллер, криминал, 2016] BDRip-AVC, Avo+Mvo

salma3

177 | 21

1.45 ГБ

В этой теме нет новых непрочитанных сообщений. Томбой / Взаимный расчёт / Tomboy / The Assignment [боевик, триллер, криминал, 2016] WEB-DLRip-AVC, Avo

salma3

234 | 50

1.49 ГБ

В этой теме нет новых непрочитанных сообщений. Нечего терять / Nothing to Lose [боевик, комедия, криминал, 1997] WEBRip 720p, Dub

salma3

57 | 63

4.37 ГБ

В этой теме нет новых непрочитанных сообщений. Американские горки / Switchback [триллер, криминал, детектив, 1997] WEBRip, Mvo

salma3

11 | 2

2.17 ГБ


Начать новую тему Ответить на тему  [ 1 сообщение ] 




Для Мосгорсуда, Роскомнадзора и рекламодателей:: mosgorsud-torrent[собачка]yandex.ru
cron