Торрент файл
скачать торрент магнет ссылка Добавлен: 16 апр 2011, 21:04
Размер: 2.04 ГБ
Сидеров: 13
Личеров: 5
Автор

СообщениеДобавлено: 16 апр 2011, 21:04 

Не в сети
Супермодератор
Аватара пользователя
Дата регистрации:
22 май 2010, 11:03
Возраст: 31
Спасибо: 7509 / 13
Сообщения: 49940
Кровавый спорт / Bloodsport


Перевод: Профессиональный (многоголосый, закадровый), cубтитры: отсутствуют
Формат: HDRip, MKV, Другой MPEG4, AC3
Страна: США
Режиссер: Ньют Арнольд
Жанр: Боевик
Продолжительность: 01:32:13
Год выпуска: 1988
В ролях: Жан-Клод Ван Дамм, Дональд Гибб, Леа Эйрс, Норман Бертон, Форест Уитейкер, Рой Чиао, Филип Чан, Пьер Рафини, Боло Йенг, Кен Сиу
Описание: На тайной гонконгской арене элитные бойцы выступают в «Кумите» — мировом чемпионате полноконтактного кун-фу. Американский военнослужащий Фрэнк Дюкс, самовольно оставляет часть, для того чтобы принять участие в этом соревновании. В свое время, будучи ребенком, он стал приемным сыном японца-учителя каратэ, достигая совершенства путем упорных тренировок. В знак успеха Фрэнк получил священный японский меч и право представлять клан Танака на любых чемпионатах, что совершенно не характерно для европейца. По следам молодого человека немедленно выдвигается ФБР. Несмотря на все преграды, возникающие на его пути, Фрэнк полон решимости добиться победы на «Кумите» и вступить в Братство Черного Дракона… Первая главная роль Жан-Клода Ван Дама, зарекомендовавшая себя с самой лучшей стороны. Фильм положил начало массе различных копий, клонов, множеству продолжений, которые лишь добавили «Кровавому спорту» эпохальности в своем жанре!

- Детям до 17 лет обязательно присутствие родителей

Видео: 1024х576 (16:9), 23.976 fps, AVC,~2785 Kbps avg, 0.197 bit/pixel
Аудио: 48.0 KHz, Audio Coding 3, 6 ch, ~384 Kbps avg

General
Format : Matroska
File size : 2.04 GiB
Duration : 1h 32mn
Overall bit rate : 3 166 Kbps
Movie name : -Kinozal.TV-
Encoded date : UTC 2010-12-13 09:21:31
Writing application : mkvmerge v3.3.0 ('Language') built on Mar 24 2010 14:59:24
Writing library : libebml v0.8.0 + libmatroska v0.9.0

Video
ID : 1
Format : AVC
Format/Info : Advanced Video Codec
Format profile :
Format settings, CABAC : Yes
Format settings, ReFrames : 10 frames
Muxing mode : Container profile=Unknown@4.1
Codec ID : V_MPEG4/ISO/AVC
Duration : 1h 32mn
Bit rate : 2 785 Kbps
Width : 1 024 pixels
Height : 576 pixels
Display aspect ratio : 16:9
Frame rate : 23.976 fps
Color space : YUV
Chroma subsampling : 4:2:0
Bit depth : 8 bits
Scan type : Progressive
Bits/(Pixel*Frame) : 0.197
Stream size : 1.75 GiB (86%)
Writing library : x264 core 92 r1510 33d382a
Encoding settings : cabac=1 / ref=10 / deblock=1:-3:-3 / analyse=0x3:0x133 / me=umh / subme=9 / psy=1 / psy_rd=1.00:0.00 / mixed_ref=1 / me_range=32 / chroma_me=1 / trellis=2 / 8x8dct=1 / cqm=0 / deadzone=21,11 / fast_pskip=0 / chroma_qp_offset=-2 / threads=3 / sliced_threads=0 / nr=0 / decimate=1 / interlaced=0 / constrained_intra=0 / bframes=5 / b_pyramid=2 / b_adapt=2 / b_bias=0 / direct=3 / wpredb=1 / wpredp=2 / keyint=250 / keyint_min=25 / scenecut=40 / intra_refresh=0 / rc_lookahead=50 / rc=2pass / mbtree=1 / bitrate=2785 / ratetol=1.0 / qcomp=0.60 / qpmin=10 / qpmax=51 / qpstep=4 / cplxblur=20.0 / qblur=0.5 / ip_ratio=1.40 / aq=1:1.00
Language : English

Audio
ID : 2
Format : AC-3
Format/Info : Audio Coding 3
Mode extension : CM (complete main)
Codec ID : A_AC3
Duration : 1h 32mn
Bit rate mode : Constant
Bit rate : 384 Kbps
Channel(s) : 6 channels
Channel positions : Front: L C R, Side: L R, LFE
Sampling rate : 48.0 KHz
Bit depth : 16 bits
Stream size : 253 MiB (12%)
Title : MVO
Language : Russian









реклама партнёра


Вернуться к началу
 Профиль Отправить личное сообщение  
 
   Похожие торренты   Автор   Торрент   Размер 
В этой теме нет новых непрочитанных сообщений. Кровавый спорт / Bloodsport [драма, спорт, биография, боевик, 1988] BDRemux 1080p, Mvo

salma3

10 | 2

17.28 ГБ

В этой теме нет новых непрочитанных сообщений. Кровавый спорт / Bloodsport [Боевик, драма, биография, спорт, 1988] BDRip 720p, Mvo+Dvo+3Avo+Sub

salma3

26 | 8

5.97 ГБ

В этой теме нет новых непрочитанных сообщений. Кровавый спорт 2 / Bloodsport 2 [боевик, спорт, 1996] DVDRip-AVC, Dvo+Avo

salma3

83 | 16

1.45 ГБ

В этой теме нет новых непрочитанных сообщений. Кровавый спорт 3 / Bloodsport 3 [боевик, спорт, 1996] DVDRip, Mvo+Avo

salma3

43 | 5

1.46 ГБ

В этой теме нет новых непрочитанных сообщений. Кровавый спорт 3 / Bloodsport 3 [Боевик, боевые искусства, 1996] DVDRip-AVC, Dvo+Avo

salma3

58 | 16

2.17 ГБ

В этой теме нет новых непрочитанных сообщений. Кровавый спорт 4: Цвет тьмы / Bloodsport: The Dark Kumite [Боевик, боевые искусства, 1999] DVDRip-AVC, Mvo+Avo

salma3

95 | 31

2.29 ГБ

В этой теме нет новых непрочитанных сообщений. Кровавый выстрел / Blood Shot (Дитрих Джонстон) [Ужасы, Боевик, Комедия, 2013] HDRip, avo

Dracon

7 | 3

1.37 ГБ


Начать новую тему Ответить на тему  [ 1 сообщение ] 




Для Мосгорсуда, Роскомнадзора и рекламодателей:: mosgorsud-torrent[собачка]yandex.ru