Торрент файл
скачать торрент магнет ссылка Добавлен: 16 апр 2011, 21:04
Размер: 1.46 ГБ
Сидеров: 123
Личеров: 6
Автор

СообщениеДобавлено: 16 апр 2011, 21:04 

Не в сети
Супермодератор
Аватара пользователя
Дата регистрации:
22 май 2010, 11:03
Возраст: 32
Спасибо: 7690 / 13
Сообщения: 49871
Турист / The Tourist



Перевод: Профессиональный (полное дублирование), cубтитры: русские (отключаемые, на французскую речь)

Слоган: «Ищу попутчика для опасного путешествия...»

Формат: DVDRip-AVC, MKV, H.264, AC3
Страна: США, Франция
Режиссер: Флориан Хенкель фон Доннерсмарк
Жанр: боевик, триллер, драма
Продолжительность: 01:39:22
Год выпуска: 2010

В ролях: Джонни Депп, Анджелина Джоли, Пол Беттани, Стивен Беркофф, Тимоти Далтон, Руфус Сьюэлл,, Игорь Жижикин, Кристиан Де Сика, Алессио Бони, Даниэле Печчи

Описание: Американский турист Фрэнк приезжает в Италию, чтобы залечить душевную рану. В Венеции он знакомится с необычной женщиной по имени Элиза. Израненное сердце, похоже, готово сдаться новой возлюбленной. Однако планы Фрэнка и Элизы грубейшим образом нарушает водоворот интриг и опасностей.




Видео: 720x416@1024x416 (2.46:1), 25 fps, MPEG4 AVC (x264) , ~1711 kbps avg, 0.28 bit/pixel
Аудио: 48 KHz, AC3, 3/2 (L,C,R,l,r) + LFE ch, ~384 kbps avg

Дополнительная информация:
бюджет = $100 000 000
сборы в США = $66 120 185
сборы в мире + $139 500 000 = $205 620 185
сборы в России = $17 700 802




[Лицензия!]

Video #1
ID : 1
Format : AVC
Format/Info : Advanced Video Codec
Format profile :
Format settings, CABAC : Yes
Format settings, ReFrames : 8 frames
Muxing mode : Container profile=Unknown@3.1
Codec ID : V_MPEG4/ISO/AVC
Duration : 1h 39mn
Bit rate : 1 671 Kbps
Nominal bit rate : 1 711 Kbps
Width : 720 pixels
Height : 416 pixels
Display aspect ratio : 2.462
Frame rate : 25.000 fps
Resolution : 24 bits
Colorimetry : 4:2:0
Scan type : Progressive
Bits/(Pixel*Frame) : 0.223
Stream size : 1.16 GiB (80%)
Title : DVDRip by Vaippp
Writing library : x264 core 112 r1867 22bfd31
Encoding settings : cabac=1 / ref=8 / deblock=1:-2:-1 / analyse=0x3:0x113 / me=umh / subme=9 / psy=1 / psy_rd=1.00:0.10 / mixed_ref=1 / me_range=32 / chroma_me=1 / trellis=1 / 8x8dct=1 / cqm=0 / deadzone=21,11 / fast_pskip=0 / chroma_qp_offset=-3 / threads=4 / sliced_threads=0 / nr=0 / decimate=1 / interlaced=0 / constrained_intra=0 / bframes=7 / b_pyramid=2 / b_adapt=2 / b_bias=0 / direct=3 / weightb=1 / open_gop=0 / weightp=2 / keyint=250 / keyint_min=25 / scenecut=40 / intra_refresh=0 / rc_lookahead=60 / rc=2pass / mbtree=1 / bitrate=1711 / ratetol=1.0 / qcomp=0.70 / qpmin=10 / qpmax=51 / qpstep=4 / cplxblur=20.0 / qblur=0.5 / ip_ratio=1.40 / aq=1:1.00
Audio #2
ID : 2
Format : AC-3
Format/Info : Audio Coding 3
Codec ID : A_AC3
Duration : 1h 39mn
Bit rate mode : Constant
Bit rate : 384 Kbps
Channel(s) : 6 channels
Channel positions : Front: L C R, Surround: L R, LFE
Sampling rate : 48.0 KHz
Stream size : 273 MiB (18%)
Title : Дубляж R5
Language : Russian
Text #3
ID : 3
Format : UTF-8
Codec ID : S_TEXT/UTF8
Codec ID/Info : UTF-8 Plain Text
Language : Russian








реклама партнёра


Вернуться к началу
 Профиль Отправить личное сообщение  
 
   Похожие торренты   Автор   Торрент   Размер 
В этой теме нет новых непрочитанных сообщений. Турист / The Tourist [Боевик, триллер, драма, ремейк, 2010] BDRemux 1080p, Dub

salma3

0 | 0

29.18 ГБ

В этой теме нет новых непрочитанных сообщений. Турист поневоле / The Accidental Tourist [драма, мелодрама, 1988] HDRip, Dvo

salma3

70 | 29

1.45 ГБ

В этой теме нет новых непрочитанных сообщений. Чёртов Берлин / Fucking Berlin (Флориан Готтшик / Florian Gottschick) [2016г., Германия., драма, мелодрама, WEB-DLRip] Sub

Alfredovich

59 | 22

1.46 ГБ

В этой теме нет новых непрочитанных сообщений. Без вести пропавшие / Missing in Action [Боевик, триллер, драма, 1984] BDRemux 1080p, Mvo

salma3

2 | 1

25.56 ГБ

В этой теме нет новых непрочитанных сообщений. Без вести пропавшие / Missing in Action [боевик, триллер, драма, приключения, военный, 1984] BDRip 720p, Mvo+Avo+Sub

salma3

10 | 5

6.18 ГБ

В этой теме нет новых непрочитанных сообщений. Без вести пропавшие 2: Начало / Missing in Action 2: The Beginning [Боевик, триллер, драма, 1985] BDRemux 1080p, Mvo

salma3

3 | 2

18.8 ГБ

В этой теме нет новых непрочитанных сообщений. Боевик Джексон / Action Jackson [боевик, триллер, комедия, криминал, 1988] BDRip 1080p, Dub+Mvo+Avo

salma3

31 | 34

10.82 ГБ


Начать новую тему Ответить на тему  [ 1 сообщение ] 




Для Мосгорсуда, Роскомнадзора и рекламодателей:: mosgorsud-torrent[собачка]yandex.ru