Торрент файл
скачать торрент магнет ссылка Добавлен: 16 апр 2011, 21:01
Размер: 2.39 ГБ
Сидеров: 69
Личеров: 11
Автор

СообщениеДобавлено: 16 апр 2011, 21:01 

Не в сети
Супермодератор
Аватара пользователя
Дата регистрации:
22 май 2010, 11:03
Возраст: 32
Спасибо: 7690 / 13
Сообщения: 49871
Обитель Зла 4: Жизнь После смерти / Resident Evil: Afterlife


Перевод: Любительский (одноголосый)С. Рапсодов, cубтитры: отсутствуют
Формат: BDRip-AVC, MKV, H.264, AC3
Страна: Германия, Франция, Великобритания
Режиссер: Пол У.С. Андерсон
Жанр: фантастический боевик
Продолжительность: 01:36:52
Год выпуска: 2010

В ролях: Милла Йовович, Эли Лартер, Ким Коутс, Шон Робертс, Серджио Перис-Менчета, Спенсер Лок, Борис Коджо, Вентворт Миллер и др.

Описание: Элис продолжает свой путь в мире, поражённом вирусной инфекцией, превращающей людей в ходячие трупы...

Рейтинг Кинопоиск.RU:6.187
Рейтинг IMDB:6.0
Рейтинг MPAA:R

Сэмпл:

Видео: 1280x528(2.40:1);23.976 fps;MPEG4 AVC (x264);2 571 kbps;0.159 bit/pixel
Аудио:
Аудио#1: Английский: AC3 5.1 48 000 Hz 448 KbpsОригинал
Аудио#2: Русский: AC3 5.1 48 000 Hz 448 Kbps Любительский (одноголосый закадровый) - С. Рапсодов(стоит по-умолчанию)
Качество видео:BDRip-AVC (Исходник: 1080p Blu-ray AVC DTS-HD MA 5.1 HDRoad)

Доп. информация:
Имеется нецензурная лексика.

General
UniqueID : 251731634185915421865837661299961949363 (0xBD61BFCD111033669F4055ADF356ECB3)
Complete name : E:\Resident Evil Afterlife 2010 BRRip 720p H264 AAC - SecretMyth (Kingdom-Release)\Resident Evil Afterlife.mkv
Format : Matroska
File size : 2.39 GiB
Duration : 1h 36mn
Overall bit rate : 3 537 Kbps
Encoded date : UTC 2011-01-15 11:10:49
Writing application : mkvmerge v4.2.0 ('No Talking') built on Jul 28 2010 18:38:23
Writing library : libebml v1.0.0 + libmatroska v1.0.0

Video
ID : 1
Format : AVC
Format/Info : Advanced Video Codec
Format profile :
Format settings, CABAC : Yes
Format settings, ReFrames : 4 frames
Muxing mode : Header stripping
Codec ID : V_MPEG4/ISO/AVC
Duration : 1h 36mn
Bit rate : 2 571 Kbps
Width : 1 280 pixels
Height : 528 pixels
Display aspect ratio : 2.40:1
Frame rate : 23.976 fps
Color space : YUV
Chroma subsampling : 4:2:0
Bit depth : 8 bits
Scan type : Progressive
Bits/(Pixel*Frame) : 0.159
Stream size : 1.74 GiB (73%)
Writing library : x264 core 108 r1772+9_DANGEROUS f1727fa
Encoding settings : cabac=1 / ref=4 / deblock=1:0:0 / analyse=0x3:0x113 / me=umh / subme=9 / psy=1 / fade_compensate=0.00 / psy_rd=1.00:0.00 / mixed_ref=1 / me_range=32 / chroma_me=1 / trellis=2 / 8x8dct=1 / cqm=0 / deadzone=21,11 / fast_pskip=1 / chroma_qp_offset=-2 / threads=3 / sliced_threads=0 / nr=0 / decimate=1 / interlaced=0 / constrained_intra=0 / fgo=0 / bframes=4 / b_pyramid=2 / b_adapt=2 / b_bias=0 / direct=1 / weightb=1 / open_gop=0 / weightp=2 / keyint=250 / keyint_min=23 / scenecut=40 / intra_refresh=0 / rc_lookahead=40 / rc=2pass / mbtree=1 / bitrate=2642 / ratetol=1.0 / qcomp=0.60 / qpmin=10 / qpmax=51 / qpstep=4 / cplxblur=20.0 / qblur=0.5 / vbv_maxrate=40000 / vbv_bufsize=30000 / ip_ratio=1.40 / aq=1 / aq-strength=0.50:0.50:0.50:0.50:0.50:0.50:0.50:0.50 / aq-sensitivity=10.00 / aq-ifactor=1.00:1.00 / aq-pfactor=1.00:1.00 / aq-bfactor=1.00:1.00 / aq-boundary=192:64:24 / nal_hrd=none
Encoded date : UTC 2010-11-25 01:19:54
Tagged date : UTC 2010-11-24 16:43:10

Audio #1
ID : 2
Format : AC-3
Format/Info : Audio Coding 3
Mode extension : CM (complete main)
Muxing mode : Header stripping
Codec ID : A_AC3
Duration : 1h 36mn
Bit rate mode : Constant
Bit rate : 448 Kbps
Channel(s) : 6 channels
Channel positions : Front: L C R, Side: L R, LFE
Sampling rate : 48.0 KHz
Bit depth : 16 bits
Compression mode : Lossy
Stream size : 310 MiB (13%)
Language : English

Audio #2
ID : 3
Format : AC-3
Format/Info : Audio Coding 3
Mode extension : CM (complete main)
Muxing mode : Header stripping
Codec ID : A_AC3
Duration : 1h 36mn
Bit rate mode : Constant
Bit rate : 448 Kbps
Channel(s) : 6 channels
Channel positions : Front: L C R, Side: L R, LFE
Sampling rate : 48.0 KHz
Bit depth : 16 bits
Compression mode : Lossy
Stream size : 310 MiB (13%)
Language : Russian

Text
ID : 4
Format : UTF-8
Codec ID : S_TEXT/UTF8
Codec ID/Info : UTF-8 Plain Text
Language : English









реклама партнёра


Вернуться к началу
 Профиль Отправить личное сообщение  
 
   Похожие торренты   Автор   Торрент   Размер 
В этой теме нет новых непрочитанных сообщений. Обитель зла: Последняя глава / Resident Evil: The Final Chapter [Ужасы, боевик, триллер, 2016] Blu-Ray CEE, Dub [Лицензия]

salma3

34 | 125

36.56 ГБ

В этой теме нет новых непрочитанных сообщений. Обитель зла: Последняя глава / Resident Evil: The Final Chapter [ужасы, фантастика, боевик, 2016] BDRip, Dub [iTunes]

salma3

819 | 288

1.41 ГБ

В этой теме нет новых непрочитанных сообщений. Обитель зла: Пенталогия / Resident Evil: Pentalogy [жасы, фантастика, боевик, 2002-2012] BDRip 1080p, Dub+Sub [лицензия]

salma3

142 | 220

40.77 ГБ

В этой теме нет новых непрочитанных сообщений. Обитель зла: Последняя глава / Resident Evil: The Final Chapter [ужасы, фантастика, боевик, 2016] DVD9, Dub+Sub [Лицензия]

salma3

15 | 7

6.37 ГБ

В этой теме нет новых непрочитанных сообщений. Обитель зла: Последняя глава / Resident Evil: The Final Chapter [Ужасы, фантастика, боевик, 2016] BDRip-AVC, Dub [Лицензия]

salma3

518 | 156

1.46 ГБ

В этой теме нет новых непрочитанных сообщений. Обитель зла: Последняя глава / Resident Evil: The Final Chapter [Ужасы, фантастика, боевик, 2016] BDRemux 1080p, Dub+Sub [Лицензия]

salma3

224 | 128

17.53 ГБ

В этой теме нет новых непрочитанных сообщений. Обитель зла: Последняя глава / Resident Evil: The Final Chapter [Ужасы, фантастика, боевик, 2016] UHD BDRemux 2160p, Dub [4K] [Лицензия]

salma3

21 | 20

43.36 ГБ


Начать новую тему Ответить на тему  [ 1 сообщение ] 




Для Мосгорсуда, Роскомнадзора и рекламодателей:: mosgorsud-torrent[собачка]yandex.ru