Торрент файл
скачать торрент магнет ссылка Добавлен: 16 апр 2011, 20:57
Размер: 2.87 ГБ
Сидеров: 127
Личеров: 6
Автор

СообщениеДобавлено: 16 апр 2011, 20:57 

Не в сети
Супермодератор
Аватара пользователя
Дата регистрации:
22 май 2010, 11:03
Возраст: 32
Спасибо: 7690 / 13
Сообщения: 49871
Мальчики-налетчики / Takers


Перевод: Профессиональный (полное дублирование), cубтитры: Русские
Формат: BDRip-AVC, MKV, H.264, AC3
Страна: США, Rainforest Films
Режиссер: Джон Льюсенхоп / John Luessenhop
Жанр: боевик, криминал
Продолжительность: 01:47:05
Год выпуска: 2010

В ролях: Пол Уокер, Хейден Кристенсен, Мэтт Диллон, Зои Салдана, Марианн Жан-Баптист, Крис Браун, Майкл Или, Идрис Эльба, Стив Харрис, Ти Ай

Описание: После серии блестяще спланированных ограблений банков команда взломщиков-профи, известных на всю Калифорнию, решается пойти на последнее, самое прибыльное дело. Такой шанс просто нельзя упустить, ведь на кону 25 миллионов долларов. Вот только есть один упертый полицейский, который готов на все, чтобы уничтожить банду мальчиков-налетчиков…

Рейтинг Кинопоиск.RU:6.649
Рейтинг IMDB:5.6
Рейтинг MPAA: PG-13

Сэмпл:

Видео: 1200x500 (2.40:1); 23,976 fps; MPEG4 AVC (x264) , 3000 Kbps avg; 0,209 bit/pixel
Аудио #1: Русский:AC3; 6ch; 384 kbps; 48Hz Профессиональный (дублированный)
Аудио #2: Английский: AC3; 6ch; 448 kbps; 48Hz Оригинал

--[Information] [03.01.2011 20:28:14] Encoding started
--[NoImage] Standard output stream
--[NoImage] Standard error stream
---[NoImage] yuv [info]: 1200x500p 1:1 @ 24000/1001 fps (cfr)
---[NoImage] x264 [info]: using SAR=1/1
---[NoImage] x264 [info]: using cpu capabilities: MMX2 SSE2Fast SSSE3 FastShuffle SSE4.1 Cache64
---[NoImage] x264 [info]: profile High, level 4.0
---[NoImage]
---[NoImage] x264 [info]: frame I:1636Avg QP:16.17size: 79966
---[NoImage] x264 [info]: frame P:41115 Avg QP:18.58size: 28938
---[NoImage] x264 [info]: frame B:111297 Avg QP:20.76size:9782
---[NoImage] x264 [info]: consecutive B-frames:4.2%6.9% 12.7% 25.3% 17.5% 23.6%4.9%3.2%1.1%0.5%
---[NoImage] x264 [info]: mb II16..4: 16.0% 67.9% 16.2%
---[NoImage] x264 [info]: mb PI16..4:2.1% 17.2%2.2%P16..4: 43.4% 24.3%4.2%0.2%0.2%skip: 6.2%
---[NoImage] x264 [info]: mb BI16..4:0.1%1.1%0.3%B16..8: 45.0% 12.0%2.7%direct: 5.9%skip:32.9%L0:43.1% L1:48.9% BI: 8.0%
---[NoImage] x264 [info]: 8x8 transform intra:77.7% inter:70.8%
---[NoImage] x264 [info]: direct mvsspatial:98.9% temporal:1.1%
---[NoImage] x264 [info]: coded y,uvDC,uvAC intra: 86.7% 81.7% 56.9% inter: 28.5% 21.1% 2.8%
---[NoImage] x264 [info]: i16 v,h,dc,p: 25% 15% 16% 43%
---[NoImage] x264 [info]: i8 v,h,dc,ddl,ddr,vr,hd,vl,hu: 14% 10%7%9% 13% 12% 13% 10% 12%
---[NoImage] x264 [info]: i4 v,h,dc,ddl,ddr,vr,hd,vl,hu: 26%9%3%8% 12% 11% 12%9% 10%
---[NoImage] x264 [info]: i8c dc,h,v,p: 36% 26% 21% 17%
---[NoImage] x264 [info]: Weighted P-Frames: Y:15.9%
---[NoImage] x264 [info]: ref P L0: 45.1%9.5% 19.7%7.4%5.9%3.9%3.5%2.0%2.1%0.6%0.1%
---[NoImage] x264 [info]: ref B L0: 73.8% 12.4%5.8%3.1%2.0%1.7%0.9%0.4%
---[NoImage] x264 [info]: ref B L1: 93.0%7.0%
---[NoImage] x264 [info]: kb/s:2999.81
---[NoImage] encoded 154048 frames, 2.20 fps, 2999.82 kb/s
--[Information] Final statistics
---[NoImage] Video Bitrate Desired: 3000 kbit/s
---[NoImage] Video Bitrate Obtained (approximate): 3001 kbit/s
--[Information] [04.01.2011 15:57:30] Postprocessing
---[Information] Deleting intermediate files
--[Information] [04.01.2011 15:57:31] Job completed
Формат: Matroska
Размер файла: 2,87 Гбайт
Продолжительность: 1 ч. 47 м.
Общий поток: 3834 Кбит/сек
Дата кодирования: UTC 2011-01-04 15:12:32
Программа кодирования: mkvmerge v4.0.0 ('The Stars were mine') сборка от Jun6 2010 16:18:42
Библиотека кодирования: libebml v1.0.0 + libmatroska v1.0.0

Видео
Идентификатор: 1
Формат: AVC
Формат/Информация: Advanced Video Codec
Профиль формата:
Параметр CABAC формата: Да
Параметр ReFrames формата: 9 кадры
Идентификатор кодека: V_MPEG4/ISO/AVC
Продолжительность: 1 ч. 47 м.
Битрейт: 3000 Кбит/сек
Ширина: 1200 пикс.
Высота: 500 пикс.
Соотношение сторон: 2,40:1
Частота кадров: 23,976 кадр/сек
Цветовое пространство: YUV
Подвыборка цветности: 4:2:0
Битовая глубина: 8 бит
Тип развёртки: Прогрессивная
Бит/(Пиксели*Кадры): 0.209
Размер потока: 2,19 Гбайт (76%)
Библиотека кодирования: x264 core 98 r1649 20cbe10
Настройки программы : cabac=1 / ref=9 / deblock=1:-2:-1 / analyse=0x3:0x133 / me=umh / subme=10 / psy=1 / psy_rd=1.10:0.10 / mixed_ref=1 / me_range=32 / chroma_me=1 / trellis=2 / 8x8dct=1 / cqm=0 / deadzone=21,11 / fast_pskip=1 / chroma_qp_offset=-3 / threads=3 / sliced_threads=0 / nr=0 / decimate=1 / interlaced=0 / constrained_intra=0 / bframes=9 / b_pyramid=2 / b_adapt=2 / b_bias=0 / direct=3 / weightb=1 / weightp=2 / keyint=250 / keyint_min=25 / scenecut=40 / intra_refresh=0 / rc=2pass / mbtree=0 / bitrate=3000 / ratetol=1.0 / qcomp=0.60 / qpmin=10 / qpmax=51 / qpstep=4 / cplxblur=20.0 / qblur=0.5 / ip_ratio=1.40 / pb_ratio=1.30 / aq=1:0.80
Язык: English

Аудио #1
Идентификатор: 2
Формат: AC-3
Формат/Информация: Audio Coding 3
Расширение режима: CM (complete main)
Идентификатор кодека: A_AC3
Продолжительность: 1 ч. 47 м.
Вид битрейта: Постоянный
Битрейт: 384 Кбит/сек
Канал(ы): 6 канала(ов)
Расположение каналов: Front: L C R, Side: L R, LFE
Частота: 48,0 КГц
Битовая глубина: 16 бит
Метод сжатия: С потерями
Размер потока: 294 Мбайт (10%)
Заголовок: Дублированный перевод
Язык: Russian

Аудио #2
Идентификатор: 3
Формат: AC-3
Формат/Информация: Audio Coding 3
Расширение режима: CM (complete main)
Идентификатор кодека: A_AC3
Продолжительность: 1 ч. 47 м.
Вид битрейта: Постоянный
Битрейт: 448 Кбит/сек
Канал(ы): 6 канала(ов)
Расположение каналов: Front: L C R, Side: L R, LFE
Частота: 48,0 КГц
Битовая глубина: 16 бит
Метод сжатия: С потерями
Размер потока: 343 Мбайт (12%)
Заголовок: Оригинал
Язык: English

Текст #1
Идентификатор: 4
Формат: UTF-8
Идентификатор кодека: S_TEXT/UTF8
Идентификатор кодека/Информация: UTF-8 Plain Text
Заголовок: Субтитры #1
Язык: English

Текст #2
Идентификатор: 5
Формат: UTF-8
Идентификатор кодека: S_TEXT/UTF8
Идентификатор кодека/Информация: UTF-8 Plain Text
Заголовок: Субтитры #2
Язык: Russian

Меню
00:00:00.000: en:00:00:00.000
00:04:13.169: en:00:04:13.169
00:14:54.560: en:00:14:54.560
00:20:07.623: en:00:20:07.623
00:24:03.483: en:00:24:03.483
00:32:46.172: en:00:32:46.172
00:35:20.076: en:00:35:20.076
00:44:19.448: en:00:44:19.448
00:52:50.250: en:00:52:50.250
00:58:38.556: en:00:58:38.556
01:02:27.702: en:01:02:27.702
01:06:16.764: en:01:06:16.764
01:13:14.681: en:01:13:14.681
01:19:49.409: en:01:19:49.409
01:23:39.389: en:01:23:39.389
01:30:36.472: en:01:30:36.472









реклама партнёра


Вернуться к началу
 Профиль Отправить личное сообщение  
 
   Похожие торренты   Автор   Торрент   Размер 
В этой теме нет новых непрочитанных сообщений. Мальчики-налетчики / Takers [Боевик, криминал, 2010] HDRip, Dub [КПК]

salma3

0 | 0

357.43 МБ

В этой теме нет новых непрочитанных сообщений. Джон Уик / John Wick [боевик, триллер, криминал, 2014] BDRip-AVC, Dub+Avo+Sub

salma3

198 | 65

1.47 ГБ

В этой теме нет новых непрочитанных сообщений. Налетчики / Marauders [боевик, триллер, криминал, 2016] BDRip-AVC, Avo

salma3

136 | 60

1.41 ГБ

В этой теме нет новых непрочитанных сообщений. Налетчики / Marauders [боевик, триллер, криминал, 2016] BDRip-AVC, Avo

salma3

191 | 28

2.13 ГБ

В этой теме нет новых непрочитанных сообщений. Обратный отсчёт / Countdown (Джон Стокуэлл / John Stockwell) [2016г., боевик, криминал, WEB-DL 720p] mvo

Alfredovich

689 | 65

2.02 ГБ

В этой теме нет новых непрочитанных сообщений. Джон Доу / John Doe: Vigilante (Келли Долен) [боевик, триллер, 2014] BDRip 720p, dvo

Dracon

1289 | 47

4.48 ГБ

В этой теме нет новых непрочитанных сообщений. Джон Уик / John Wick (Дэвид Лейтч, Чад Стахелски) [боевик, триллер, 2014] BDRip 1080p, dub [Чистый звук]

Dracon

154 | 3

6.64 ГБ


Начать новую тему Ответить на тему  [ 1 сообщение ] 




Для Мосгорсуда, Роскомнадзора и рекламодателей:: mosgorsud-torrent[собачка]yandex.ru