Торрент файл
скачать торрент магнет ссылка Добавлен: 11 дек 2017, 22:04
Размер: 746.02 МБ
Сидеров: 171
Личеров: 42
Статус: (salma3)
Автор

СообщениеДобавлено: 11 дек 2017, 22:04 

Не в сети
Супермодератор
Аватара пользователя
Дата регистрации:
15 фев 2012, 16:44
Возраст: 28
Спасибо: 7290 / 2147
Сообщения: 70552
Год выхода: 2005
Жанр: Боевик, триллер, криминал, приключения
Режиссер: Джон Стокуэлл

В ролях: Джессика Альба, Эшли Скотт, Пол Уокер, Скотт Каан Джош Бролин, Джеймс Фрейн, Тайсон Бекфорд, Дуэйн Эдвэй, Джейвон Фрейзер, Крис Талоа, Peter R.V. Bowleg Jr., Клиффорд МакИнтош, Адам Коллинз, Гилл Монти, Дэн Баллард, Саманта Ламб, Артур Томпсон мл., Ramon Saunders, Стивен Белло, Leo Quant, John Willinger...

О фильме :
Из пункта «А» в пункт «Б» летел небольшой частный самолёт и во время грозы потерпел крушение, где-то в акватории Багамских островов… Как раз в тех местах, где молодой парень Джаред, инструктор по дайвингу, мечтает в свободное от службы время о будущей лучшей жизни вместе со своей подружкой Самантой, которая работает в местном аквапарке. В гости к ним приезжают Брайс, давний приятель Джареда, и тоже с подружкой - Амандой. Весело проводя время на земле и на море, они в ходе очередного заплыва на глубину натыкаются на затонувший самолёт, полный аккуратно запечатанных мешочков, как выяснится, с кокаином… С этой минуты начинаются для четверых друзей настоящие приключения, с погонями и предательством, с поединком, где выигравший получает жизнь...



Страна: США
Продолжительность: 01:50:13
Перевод: Профессиональный (полное дублирование)

Файл
Формат: MKV
Качество: HDRip-AVC
Видео: MPEG-4 AVC, 768x324, ~ 868 Кбит/с
Аудио: AAC-LC, 2 ch, ~ 76 Кбит/с
Субтитры: Русские, английские

Общее
Уникальный идентификатор : 239887649705023485967617454712319847567 (0xB478AE47F65B74ABA03AA3CCC7932C8F)
Полное имя : D:MOVIESDobro.poshalovat.v.ray.2005.ExKinoRay.mkv
Формат : Matroska
Версия формата : Version 4 / Version 2
Размер файла : 746 Мбайт
Продолжительность : 1 ч. 50 м.
Общий поток : 946 Кбит/сек
Дата кодирования : UTC 2017-12-11 11:57:22
Программа кодирования : mkvmerge v15.0.0 ('Duel with the Devil') 64-bit
Библиотека кодирования : libebml v1.3.5 + libmatroska v1.4.5

Видео
Идентификатор : 1
Формат : AVC
Формат/Информация : Advanced Video Codec
Профиль формата : High@L4.1
Параметр CABAC формата : Да
Параметр RefFrames формата : 10 кадров
Идентификатор кодека : V_MPEG4/ISO/AVC
Продолжительность : 1 ч. 50 м.
Битрейт : 868 Кбит/сек
Ширина : 768 пикселей
Высота : 324 пикселя
Соотношение сторон : 2,40:1
Режим частоты кадров : Постоянный
Частота кадров : 23,976 (24000/1001) кадра/сек
Цветовое пространство : YUV
Субдискретизация насыщенности : 4:2:0
Битовая глубина : 8 бит
Тип развёртки : Прогрессивная
Бит/(Пиксели*Кадры) : 0.145
Размер потока : 684 Мбайт (92%)
Библиотека кодирования : x264 core 152 r2851kMod ba24899
Настройки программы : cabac=1 / ref=10 / deblock=1:-3:-4 / analyse=0x3:0x133 / me=umh / subme=11 / psy=1 / fade_compensate=0.00 / psy_rd=1.00:0.12 / mixed_ref=1 / me_range=32 / chroma_me=1 / trellis=2 / 8x8dct=1 / cqm=0 / deadzone=21,11 / fast_pskip=0 / chroma_qp_offset=-3 / threads=6 / lookahead_threads=1 / sliced_threads=0 / nr=0 / decimate=0 / interlaced=0 / bluray_compat=0 / constrained_intra=0 / bframes=10 / b_pyramid=2 / b_adapt=2 / b_bias=0 / direct=3 / weightb=1 / open_gop=0 / weightp=2 / keyint=240 / keyint_min=23 / scenecut=40 / intra_refresh=0 / rc_lookahead=40 / rc=2pass / mbtree=1 / bitrate=868 / ratetol=1.0 / qcomp=0.60 / qpmin=0 / qpmax=69 / qpstep=4 / cplxblur=20.0 / qblur=0.5 / vbv_maxrate=50000 / vbv_bufsize=62500 / nal_hrd=none / filler=0 / ip_ratio=1.40 / aq=3:1.00
Default : Да
Forced : Нет

Аудио
Идентификатор : 2
Формат : AAC
Формат/Информация : Advanced Audio Codec
Профиль формата : LC
Идентификатор кодека : A_AAC
Продолжительность : 1 ч. 50 м.
Битрейт : 76,0 Кбит/сек
Каналы : 2 канала
Расположение каналов : Front: L R
Частота : 48,0 КГц
Частота кадров : 46,875 кадров/сек (1024 SPF)
Метод сжатия : С потерями
Задержка видео : 9 мс.
Размер потока : 59,9 Мбайт (8%)
Язык : Russian
Default : Да
Forced : Нет

Текст #1
Идентификатор : 3
Формат : UTF-8
Идентификатор кодека : S_TEXT/UTF8
Идентификатор кодека/Информация : UTF-8 Plain Text
Продолжительность : 1 ч. 44 м.
Битрейт : 81 бит/сек
ElementCount : 1083
Размер потока : 62,2 Кбайт (0%)
Заголовок : MIHAF
Язык : Russian
Default : Нет
Forced : Нет

Текст #2
Идентификатор : 4
Формат : UTF-8
Идентификатор кодека : S_TEXT/UTF8
Идентификатор кодека/Информация : UTF-8 Plain Text
Продолжительность : 1 ч. 44 м.
Битрейт : 53 бит/сек
ElementCount : 1064
Размер потока : 41,1 Кбайт (0%)
Язык : English
Default : Нет
Forced : Нет

Меню
00:00:00.000 : en:Chapter 1
00:09:51.174 : en:Chapter 2
00:14:50.473 : en:Chapter 3
00:19:56.946 : en:Chapter 4
00:28:08.604 : en:Chapter 5
00:34:37.826 : en:Chapter 6
00:41:03.336 : en:Chapter 7
00:50:36.283 : en:Chapter 8
00:58:20.414 : en:Chapter 9
01:00:29.084 : en:Chapter 10
01:08:37.322 : en:Chapter 11
01:16:10.608 : en:Chapter 12
01:25:52.272 : en:Chapter 13
01:30:32.802 : en:Chapter 14
01:37:58.456 : en:Chapter 15
01:43:28.119 : en:Chapter 16



Релиз от:


_________________
Проголосуй за трекер Открытый торрент трекер - RUS-MEDIA.ORG

Проголосуй Открытый торрент трекер - RUS-MEDIA.ORG


Вернуться к началу
 Профиль Отправить личное сообщение  
 
   Похожие торренты   Автор   Торрент   Размер 
В этой теме нет новых непрочитанных сообщений. Добро пожаловать в рай! 2: Риф / Into the Blue 2: The Reef [боевик, триллер, приключения, 2009] WEBRip-AVC, Mvo

salma3

149 | 36

744.08 МБ

В этой теме нет новых непрочитанных сообщений. Добро пожаловать в рай! 2: Риф / Into the Blue 2: The Reef [боевик, триллер, приключения, 2009] DVDRip-AVC, Mvo+Sub

salma3

110 | 26

2.89 ГБ

В этой теме нет новых непрочитанных сообщений. Добро пожаловать в рай! 2: Риф / Into the Blue 2: The Reef [боевик, триллер, приключения, 2009] WEBRip 1080p, Mvo+Sub

salma3

106 | 20

9.01 ГБ

В этой теме нет новых непрочитанных сообщений. Добро пожаловать в Zомбилэнд / Zombieland [ужасы, боевик, комедия, 2009] HDRip, Dub

salma3

0 | 0

1.45 ГБ

В этой теме нет новых непрочитанных сообщений. И снова добро пожаловать / Welcome Back [боевик, драма, комедия, криминал, 2015] WEB-DLRip, Dvo

salma3

31 | 8

2.05 ГБ

В этой теме нет новых непрочитанных сообщений. Добро пожаловать в Коллинвуд / Welcome to Collinwood [Комедия, криминал, 2002] WEB-DLRip, Dub

salma3

43 | 2

1.46 ГБ

В этой теме нет новых непрочитанных сообщений. Добро пожаловать в Сараево / Welcome to Sarajevo [драма, военный, 1997] HDRip, Dvo

salma3

26 | 4

1.45 ГБ


Начать новую тему Ответить на тему  [ 1 сообщение ] 




Для Мосгорсуда, Роскомнадзора и рекламодателей:: mosgorsud-torrent[собачка]yandex.ru
cron