Торрент файл
скачать торрент магнет ссылка Добавлен: 11 дек 2017, 13:15
Размер: 1.97 ГБ
Сидеров: 41
Личеров: 4
Статус: (salma3)
Автор

СообщениеДобавлено: 11 дек 2017, 13:15 

Не в сети
Супермодератор
Аватара пользователя
Дата регистрации:
15 фев 2012, 16:44
Возраст: 28
Спасибо: 7224 / 2147
Сообщения: 67983
Год выхода: 1962
Жанр: триллер, драма, военный
Режиссер: Джордж Ситон

В ролях: Уильям Холден, Лилли Пальмер, Хью Гриффит, Карл Раддац, Эрнст Шрёдер, Шарль Ренье, Ингрид ван Берген, Вольфганг Прайсс, Вернер Петерс, Эрика Беер

О фильме:
Эрик Эриксон, шведский бизнесмен, вынужден согласиться работать на разведку Союзников во время своих деловых поездок в нацистскую Германию.



Страна: США
Продолжительность: 02:20:52
Перевод: Профессиональный (многоголосый закадровый)
Релиз от: Охрана (NNMCLUB)

Файл
Видео: AVC/H.264, 720x400, ~1615 Kbps
Аудио 1: Русский, AC3, 2 ch, 192 Kbps, 48.0 kHz
Аудио 2: Английский, AC3, 2 ch, 192 Kbps, 48.0 kHz

General
Unique ID : 222813157920474814569878408132196718240 (0xA7A040D73C9CD8DBAD799E2CD76A56A0)
Complete name : F:DownloadsФальшивый предатель. 1962. NNMCLUB.mkv
Format : Matroska
Format version : Version 4 / Version 2
File size : 1.97 GiB
Duration : 2h 20mn
Overall bit rate : 2 001 Kbps
Encoded date : UTC 2017-11-24 13:05:58
Writing application : mkvmerge v7.0.0 ('Where We Going') 32bit built on Jun 9 2014 15:08:34
Writing library : libebml v1.3.0 + libmatroska v1.4.1
DURATION : 02:16:59.800000000
NUMBER_OF_FRAMES : 1479
NUMBER_OF_BYTES : 62867
_STATISTICS_WRITING_APP : mkvmerge v7.0.0 ('Where We Going') 32bit built on Jun 9 2014 15:08:34
_STATISTICS_WRITING_DATE_UTC : 2017-11-24 13:05:58
_STATISTICS_TAGS : BPS DURATION NUMBER_OF_FRAMES NUMBER_OF_BYTES

Video
ID : 1
Format : AVC
Format/Info : Advanced Video Codec
Format profile : High@L4.1
Format settings, CABAC : Yes
Format settings, ReFrames : 12 frames
Codec ID : V_MPEG4/ISO/AVC
Duration : 2h 20mn
Bit rate : 1 615 Kbps
Width : 720 pixels
Height : 400 pixels
Display aspect ratio : 16:9
Frame rate mode : Constant
Frame rate : 23.976 fps
Color space : YUV
Chroma subsampling : 4:2:0
Bit depth : 8 bits
Scan type : Progressive
Bits/(Pixel*Frame) : 0.234
Stream size : 1.55 GiB (79%)
Title : The Counterfeit Traitor
Writing library : x264 core 125 r2208 d9d2288
Encoding settings : cabac=1 / ref=12 / deblock=1:-1:-1 / analyse=0x3:0x133 / me=umh / subme=10 / psy=1 / psy_rd=1.00:0.10 / mixed_ref=1 / me_range=32 / chroma_me=1 / trellis=2 / 8x8dct=1 / cqm=0 / deadzone=21,11 / fast_pskip=0 / chroma_qp_offset=-3 / threads=6 / lookahead_threads=1 / sliced_threads=0 / nr=0 / decimate=0 / interlaced=0 / bluray_compat=0 / constrained_intra=0 / bframes=7 / b_pyramid=2 / b_adapt=2 / b_bias=0 / direct=3 / weightb=1 / open_gop=0 / weightp=2 / keyint=250 / keyint_min=25 / scenecut=40 / intra_refresh=0 / rc_lookahead=60 / rc=2pass / mbtree=1 / bitrate=1615 / ratetol=1.0 / qcomp=0.60 / qpmin=0 / qpmax=69 / qpstep=4 / cplxblur=20.0 / qblur=0.5 / ip_ratio=1.40 / aq=1:1.00
Language : English
Default : Yes
Forced : No

Audio #1
ID : 2
Format : AC-3
Format/Info : Audio Coding 3
Mode extension : CM (complete main)
Format settings, Endianness : Big
Codec ID : A_AC3
Duration : 2h 20mn
Bit rate mode : Constant
Bit rate : 192 Kbps
Channel(s) : 2 channels
Channel positions : Front: L R
Sampling rate : 48.0 KHz
Bit depth : 16 bits
Compression mode : Lossy
Stream size : 193 MiB (10%)
Title : Многоголосый закадровый
Language : Russian
Default : Yes
Forced : No

Audio #2
ID : 3
Format : AC-3
Format/Info : Audio Coding 3
Mode extension : CM (complete main)
Format settings, Endianness : Big
Codec ID : A_AC3
Duration : 2h 20mn
Bit rate mode : Constant
Bit rate : 192 Kbps
Channel(s) : 2 channels
Channel positions : Front: L R
Sampling rate : 48.0 KHz
Bit depth : 16 bits
Compression mode : Lossy
Stream size : 193 MiB (10%)
Title : Оригинал
Language : English
Default : No
Forced : No

Text #1
ID : 4
Format : UTF-8
Codec ID : S_TEXT/UTF8
Codec ID/Info : UTF-8 Plain Text
Title : SRT
Language : Russian
Default : No
Forced : No

Text #2
ID : 5
Format : UTF-8
Codec ID : S_TEXT/UTF8
Codec ID/Info : UTF-8 Plain Text
Title : SRT
Language : English
Default : No
Forced : No


_________________
Проголосуй за трекер Открытый торрент трекер - RUS-MEDIA.ORG

Проголосуй Открытый торрент трекер - RUS-MEDIA.ORG


Вернуться к началу
 Профиль Отправить личное сообщение  
 
   Похожие торренты   Автор   Торрент   Размер 
В этой теме нет новых непрочитанных сообщений. Предатель / Traitor [боевик, триллер, драма, 2008] Blu-ray 1080p, Dvo

salma3

17 | 13

31.13 ГБ

В этой теме нет новых непрочитанных сообщений. Такой же предатель, как и мы / Our Kind of Traitor [триллер, 2016] HDRip, mvo [iTunes]

marya111

291 | 27

1.45 ГБ

В этой теме нет новых непрочитанных сообщений. Такой же предатель, как и мы / Our Kind of Traitor [триллер, 2016] HDRip, mvo [iTunes]

marya111

469 | 24

1.37 ГБ

В этой теме нет новых непрочитанных сообщений. Такой же предатель, как и мы / Our Kind of Traitor [Триллер, 2016] BDRip 720p, mvo [iTunes]

marya111

0 | 0

5.38 ГБ

В этой теме нет новых непрочитанных сообщений. Звёздный десант: Предатель Марса / Starship Troopers: Traitor of Mars [Мультфильм, фантастика, боевик, 2017] Blu-Ray EUR 1080p, Dub [Лицензия]

salma3

12 | 57

31.09 ГБ

В этой теме нет новых непрочитанных сообщений. Звёздный десант: Предатель Марса / Starship Troopers: Traitor of Mars [Мультфильм, фантастика, боевик, 2017] BDRip-AVC, Mvo [Лицензия]

salma3

52 | 4

2.18 ГБ

В этой теме нет новых непрочитанных сообщений. Звёздный десант: Предатель Марса / Starship Troopers: Traitor of Mars [мультфильм, фантастика, боевик, 2017] WEB-DLRip, Mvo [Line]

salma3

2021 | 359

1.37 ГБ


Начать новую тему Ответить на тему  [ 1 сообщение ] 




Для Мосгорсуда, Роскомнадзора и рекламодателей:: mosgorsud-torrent[собачка]yandex.ru
cron