Торрент файл
скачать торрент магнет ссылка Добавлен: 09 дек 2017, 12:45
Размер: 1.45 ГБ
Сидеров: 10
Личеров: 1
Статус: (salma3)
Автор

СообщениеДобавлено: 09 дек 2017, 12:45 

Не в сети
Супермодератор
Аватара пользователя
Дата регистрации:
15 фев 2012, 16:44
Возраст: 29
Спасибо: 7328 / 2147
Сообщения: 73790
Год выхода: 1986
Жанр: ужасы, комедия
Режиссер: Джордж Дагдэйл, Марк Эзра, Питер Маккензи Литтен

В ролях: Кэролайн Манро, Саймон Скуддамор, Кармине Яннакконе, Донна Йеджер, Гари Мартин, Билли Хартмен, Майкл Саффран, Джон Сигал, Келли Бэйкер, Сэлли Кросс.

О фильме:
В колледже городка Daddsville студенты на день первоапрельского дурака устраивают несколько жестоких розыгрышей, один из которых закачивается трагедией: в результате пожара в химической лаборатории подросток Марти получает серьезные ожоги. Проходит много лет. Однажды бывшие выпускники школы 1 апреля приглашаются на встречу школьных друзей. Но вскоре молодые люди понимают, что собрали всех их вместе в школе не случайно. Кто-то готовит им страшную месть…



Страна: Великобритания, США
Продолжительность: 01:30:28
Перевод: Профессиональный (двухголосый) ТВ3

Файл
Кодек: h.264
Качество: BDRip-AVC
Видео: MPEG-4, 1080x584, 23.976 fps ~1914 kbps
Звук:
1) 48 KHz, AC3, 2 ch ~192 Kbps - MVO [ТВ3]
2) 48 KHz, AC3, 2 ch ~192 Kbps - Original

General
Unique ID : 174848901643308386419667251356997564463 (0x838AAC6D3C5FEB168F13484B3FA8B82F)
Format : Matroska
Format version : Version 4 / Version 2
File size : 1.45 GiB
Duration : 1 h 30 min
Overall bit rate : 2 299 kb/s
Movie name : Slaughter High (1986) BDRip-AVC от DrVampir
Encoded date : UTC 2017-12-09 06:23:07 / UTC 2017-12-08T01:37:53Z
Writing application : mkvmerge v15.0.0 ('Duel with the Devil') 64-bit
Writing library : libebml v1.3.5 + libmatroska v1.4.5 / Lavf57.7.2
Cover : Yes
Attachments : Cover.jpg

Video
ID : 1
Format : AVC
Format/Info : Advanced Video Codec
Format profile : High@L4.1
Format settings : CABAC / 12 Ref Frames
Format settings, CABAC : Yes
Format settings, ReFrames : 12 frames
Codec ID : V_MPEG4/ISO/AVC
Duration : 1 h 30 min
Bit rate : 1 914 kb/s
Width : 1 080 pixels
Height : 584 pixels
Display aspect ratio : 1.85:1
Frame rate mode : Constant
Frame rate : 23.976 (24000/1001) FPS
Color space : YUV
Chroma subsampling : 4:2:0
Bit depth : 8 bits
Scan type : Progressive
Bits/(Pixel*Frame) : 0.127
Stream size : 1.18 GiB (81%)
Title : MPEG-4, 1080x584, 23.976 fps ~1914 kbps
Writing library : x264 core 148 r2708 86b7198
Encoding settings : cabac=1 / ref=12 / deblock=1:-3:-3 / analyse=0x3:0x133 / me=umh / subme=11 / psy=1 / psy_rd=1.00:0.15 / mixed_ref=1 / me_range=32 / chroma_me=1 / trellis=2 / 8x8dct=1 / cqm=0 / deadzone=21,11 / fast_pskip=0 / chroma_qp_offset=-3 / threads=6 / lookahead_threads=1 / sliced_threads=0 / nr=0 / decimate=1 / interlaced=0 / bluray_compat=0 / constrained_intra=0 / bframes=14 / b_pyramid=2 / b_adapt=2 / b_bias=0 / direct=3 / weightb=1 / open_gop=0 / weightp=2 / keyint=240 / keyint_min=24 / scenecut=40 / intra_refresh=0 / rc_lookahead=80 / rc=2pass / mbtree=0 / bitrate=1914 / ratetol=1.0 / qcomp=0.70 / qpmin=0 / qpmax=69 / qpstep=4 / cplxblur=20.0 / qblur=0.5 / vbv_maxrate=62500 / vbv_bufsize=78125 / nal_hrd=none / filler=0 / ip_ratio=1.40 / pb_ratio=1.30 / aq=1:1.00
Language : English
Default : Yes
Forced : No
Color range : Limited
Color primaries : BT.709
Transfer characteristics : BT.709
Matrix coefficients : BT.709
Statistics Tags Issue : mkvmerge v15.0.0 ('Duel with the Devil') 64-bit 2017-12-09 06:23:07 / mkvmerge v15.0.0 ('Duel with the Devil') 64-bit 2017-12-09 06:23:07 / UTC 2017-12-08T01:37:53Z
FromStats_BitRate : 1912095
FromStats_Duration : 01:30:28.507000000
FromStats_FrameCount : 130154
FromStats_StreamSize : 1297477721

Audio #1
ID : 2
Format : AC-3
Format/Info : Audio Coding 3
Codec ID : A_AC3
Duration : 1 h 30 min
Bit rate mode : Constant
Bit rate : 192 kb/s
Channel(s) : 2 channels
Channel positions : Front: L R
Sampling rate : 48.0 kHz
Frame rate : 31.250 FPS (1536 SPF)
Bit depth : 16 bits
Compression mode : Lossy
Stream size : 124 MiB (8%)
Title : 48 KHz, AC3, 2 ch ~192 Kbps - DVO [ТВ3]
Language : Russian
Service kind : Complete Main
Default : Yes
Forced : No
Statistics Tags Issue : mkvmerge v15.0.0 ('Duel with the Devil') 64-bit 2017-12-09 06:23:07 / mkvmerge v15.0.0 ('Duel with the Devil') 64-bit 2017-12-09 06:23:07 / UTC 2017-12-08T01:37:53Z
FromStats_BitRate : 192000
FromStats_Duration : 01:30:28.544000000
FromStats_FrameCount : 169642
FromStats_StreamSize : 130285056

Audio #2
ID : 3
Format : AC-3
Format/Info : Audio Coding 3
Codec ID : A_AC3
Duration : 1 h 30 min
Bit rate mode : Constant
Bit rate : 192 kb/s
Channel(s) : 2 channels
Channel positions : Front: L R
Sampling rate : 48.0 kHz
Frame rate : 31.250 FPS (1536 SPF)
Bit depth : 16 bits
Compression mode : Lossy
Delay relative to video : 6 ms
Stream size : 124 MiB (8%)
Title : 48 KHz, AC3, 2 ch ~192 Kbps - Original
Language : English
Service kind : Complete Main
Default : No
Forced : No
Statistics Tags Issue : mkvmerge v15.0.0 ('Duel with the Devil') 64-bit 2017-12-09 06:23:07 / mkvmerge v15.0.0 ('Duel with the Devil') 64-bit 2017-12-09 06:23:07 / UTC 2017-12-08T01:37:53Z
FromStats_BitRate : 192000
FromStats_Duration : 01:30:28.480000000
FromStats_FrameCount : 169640
FromStats_StreamSize : 130283520

Text #1
ID : 4
Format : ASS
Codec ID : S_TEXT/ASS
Codec ID/Info : Advanced Sub Station Alpha
Compression mode : Lossless
Language : English
Default : No
Forced : No
Statistics Tags Issue : mkvmerge v15.0.0 ('Duel with the Devil') 64-bit 2017-12-09 06:23:07 / mkvmerge v15.0.0 ('Duel with the Devil') 64-bit 2017-12-09 06:23:07 / UTC 2017-12-08T01:37:53Z
FromStats_BitRate : 72
FromStats_Duration : 01:29:55.353000000
FromStats_FrameCount : 1046
FromStats_StreamSize : 49221

Text #2
ID : 5
Format : ASS
Codec ID : S_TEXT/ASS
Codec ID/Info : Advanced Sub Station Alpha
Compression mode : Lossless
Language : English
Default : No
Forced : No
Statistics Tags Issue : mkvmerge v15.0.0 ('Duel with the Devil') 64-bit 2017-12-09 06:23:07 / mkvmerge v15.0.0 ('Duel with the Devil') 64-bit 2017-12-09 06:23:07 / UTC 2017-12-08T01:37:53Z
FromStats_BitRate : 89
FromStats_Duration : 01:30:24.882000000
FromStats_FrameCount : 1328
FromStats_StreamSize : 60771

Menu
00:00:00.000 : :00:00:00.000
00:08:19.666 : :00:08:19.666
00:16:39.624 : :00:16:39.624
00:22:13.457 : :00:22:13.457
00:28:03.515 : :00:28:03.432
00:38:36.564 : :00:38:36.564
00:49:30.384 : :00:49:30.384
00:53:18.278 : :00:53:18.278
01:03:41.318 : :01:03:41.317
01:09:53.856 : :01:09:53.856
01:16:48.354 : :01:16:48.354
01:29:03.713 : :01:29:03.672


_________________
Проголосуй за трекер Открытый торрент трекер - RUS-MEDIA.ORG

Проголосуй Открытый торрент трекер - RUS-MEDIA.ORG


Вернуться к началу
 Профиль Отправить личное сообщение  
 
   Похожие торренты   Автор   Торрент   Размер 
В этой теме нет новых непрочитанных сообщений. Резня в школе / Slaughter High [ужасы, триллер, 1986] BDRip 1080p, Dvo

salma3

3 | 0

8.86 ГБ

В этой теме нет новых непрочитанных сообщений. Резня в школе / Slaughter High [ужасы, комедия, 1986] HDRip-AVC, Dvo [ТВ3]

salma3

35 | 2

745.77 МБ

В этой теме нет новых непрочитанных сообщений. Техасская резня бензопилой 2 / The Texas Chainsaw Massacre 2 [ужасы, комедия, 1986] BDRip 720p, Dvo+Sub

salma3

0 | 0

11.71 ГБ

В этой теме нет новых непрочитанных сообщений. Учитель и чудовища / Беспредел в средней школе / High School High [Комедия, криминал, мелодрама, 1996] WEB-DL 1080p, Mvo

salma3

0 | 1

8.97 ГБ

В этой теме нет новых непрочитанных сообщений. Учитель и чудовища / Беспредел в средней школе / High School High [Комедия, криминал, мелодрама, 1996] WEB-DL 720p, Mvo

salma3

52 | 14

3.44 ГБ

В этой теме нет новых непрочитанных сообщений. Резня в психушке / Doom Asylum [ужасы, комедия, 1987] BDRip, Avo

salma3

0 | 1

1.45 ГБ

В этой теме нет новых непрочитанных сообщений. Резня в психушке / Doom Asylum [Ужасы, комедия, 1987] BDRip 720p, Avo

salma3

0 | 0

6.42 ГБ


Начать новую тему Ответить на тему  [ 1 сообщение ] 




Для Мосгорсуда, Роскомнадзора и рекламодателей:: mosgorsud-torrent[собачка]yandex.ru
cron