Торрент файл
скачать торрент магнет ссылка Добавлен: 07 дек 2017, 16:58
Размер: 746.17 МБ
Сидеров: 13
Личеров: 3
Статус: (salma3)
Автор

СообщениеДобавлено: 07 дек 2017, 16:58 

Не в сети
Супермодератор
Аватара пользователя
Дата регистрации:
15 фев 2012, 16:44
Возраст: 29
Спасибо: 7328 / 2147
Сообщения: 73276
Год выхода: 1993
Жанр: Фантастика, ужасы, триллер
Режиссер: Абель Феррара

В ролях: Габриэлль Анвар, Терри Кинни, Билли Вёрф, Кристин Элиз, Р. Ли Эрми, Дж. Элвис Филлипс, Рейли Мерфи, Кэтлин Дойл, Форест Уитакер

О фильме:
Не спите. Потому что именно во время сна это и случается. Именно тогда их щупальца проникают в ваши уши и ноздри. И вот вы уже больше не вы. Вы похищены, вы стали жертвой «похитителей тел». Экранизация романа Джека Финни. Девочка вместе с отцом, мачехой и сводным младшим братом приезжает на военную базу, где ее отец должен заниматься инспекцией научного объекта. Почти у самой базы, в туалете на бензоколонке, ее напугал здоровенный негр. Он сказал ей, что "они уже там, они везде, они захватывают тебя, когда ты спишь. Уезжай отсюда". Зря девочке не поверили. Люди на этой базе боятся спать, боятся членов своей семьи, друг друга, боятся самих себя. Даже дети в школе на уроке рисования, не сговариваясь, рисуют одно и то же кровавое месиво. А скоро маленький мальчик, заметив, что мама его странно изменилась, говорит, что это не мама, что мама умерла. Жуть нарастает



Выпущено: США, Warner bros. pictures
Продолжительность: 01:27:08
Перевод: Дублированный (Варус Видео)

Файл
Кодек: H.264
Качество: BDRip AVC
Видео: MPEG-4 AVC, 1051 Кбит/с, 720x300
Звук: Русский, английский (AAC, 2 ch, 72 Кбит/сс)
Субтитры: Русские, английские

Формат : Matroska
Версия формата : Version 4 / Version 2
Размер файла : 746 Мбайт
Продолжительность : 1 ч. 27 м.
Общий поток : 1197 Кбит/сек
Название фильма : Pohititeli.tel.1993.x264.BDRip.AVC.ExKinoRay
Дата кодирования : UTC 2017-12-06 16:38:45
Программа кодирования : mkvmerge v17.0.0 ('Be Ur Friend') 64-bit
Библиотека кодирования : libebml v1.3.5 + libmatroska v1.4.8

Видео
Идентификатор : 1
Формат : AVC
Формат/Информация : Advanced Video Codec
Профиль формата : High@L4.1
Параметр CABAC формата : Да
Параметр ReFrames формата : 10 кадров
Идентификатор кодека : V_MPEG4/ISO/AVC
Продолжительность : 1 ч. 27 м.
Битрейт : 1051 Кбит/сек
Ширина : 720 пикселей
Высота : 300 пикселей
Соотношение сторон : 2,40:1
Режим частоты кадров : Постоянный
Частота кадров : 23,976 (24000/1001) кадра/сек
Цветовое пространство : YUV
Субдискретизация насыщенности : 4:2:0
Битовая глубина : 8 бит
Тип развёртки : Прогрессивная
Бит/(Пиксели*Кадры) : 0.203
Размер потока : 655 Мбайт (88%)
Заголовок : ExKinoRay
Библиотека кодирования : x264 core 152 r2851 ba24899
Настройки программы : cabac=1 / ref=10 / deblock=1:-2:-2 / analyse=0x3:0x133 / me=umh / subme=11 / psy=1 / psy_rd=1.00:0.00 / mixed_ref=1 / me_range=32 / chroma_me=1 / trellis=2 / 8x8dct=1 / cqm=0 / deadzone=21,11 / fast_pskip=0 / chroma_qp_offset=-3 / threads=6 / lookahead_threads=1 / sliced_threads=0 / nr=0 / decimate=0 / interlaced=0 / bluray_compat=0 / constrained_intra=0 / bframes=10 / b_pyramid=2 / b_adapt=2 / b_bias=0 / direct=3 / weightb=1 / open_gop=0 / weightp=2 / keyint=240 / keyint_min=23 / scenecut=40 / intra_refresh=0 / rc_lookahead=40 / rc=2pass / mbtree=0 / bitrate=1051 / ratetol=1.0 / qcomp=0.60 / qpmin=0 / qpmax=69 / qpstep=4 / cplxblur=20.0 / qblur=0.5 / vbv_maxrate=50000 / vbv_bufsize=62500 / nal_hrd=none / filler=0 / ip_ratio=1.40 / pb_ratio=1.30 / aq=2:1.00
Язык : English
Default : Да
Forced : Нет

Аудио #1
Идентификатор : 2
Формат : AAC
Формат/Информация : Advanced Audio Codec
Профиль формата : LC
Идентификатор кодека : A_AAC
Продолжительность : 1 ч. 27 м.
Битрейт : 72,0 Кбит/сек
Каналы : 2 канала
Расположение каналов : Front: L R
Частота : 48,0 КГц
Частота кадров : 46,875 кадров/сек (1024 spf)
Метод сжатия : С потерями
Задержка видео : 9 мс.
Размер потока : 44,9 Мбайт (6%)
Язык : Russian
Default : Да
Forced : Нет

Аудио #2
Идентификатор : 3
Формат : AAC
Формат/Информация : Advanced Audio Codec
Профиль формата : LC
Идентификатор кодека : A_AAC
Продолжительность : 1 ч. 27 м.
Битрейт : 72,0 Кбит/сек
Каналы : 2 канала
Расположение каналов : Front: L R
Частота : 48,0 КГц
Частота кадров : 46,875 кадров/сек (1024 spf)
Метод сжатия : С потерями
Задержка видео : 9 мс.
Размер потока : 44,9 Мбайт (6%)
Язык : English
Default : Нет
Forced : Нет

Текст #1
Идентификатор : 4
Формат : UTF-8
Идентификатор кодека : S_TEXT/UTF8
Идентификатор кодека/Информация : UTF-8 Plain Text
Продолжительность : 1 ч. 20 м.
Битрейт : 46 бит/сек
Count of elements : 703
Размер потока : 27,3 Кбайт (0%)
Язык : Russian
Default : Нет
Forced : Нет

Текст #2
Идентификатор : 5
Формат : UTF-8
Идентификатор кодека : S_TEXT/UTF8
Идентификатор кодека/Информация : UTF-8 Plain Text
Продолжительность : 1 ч. 20 м.
Битрейт : 37 бит/сек
Count of elements : 944
Размер потока : 21,9 Кбайт (0%)
Язык : English
Default : Нет
Forced : Нет

Меню
00:00:00.000 : en:Chapter 01
00:03:58.235 : en:Chapter 02
00:06:14.706 : en:Chapter 03
00:11:07.540 : en:Chapter 04
00:12:34.127 : en:Chapter 05
00:15:37.686 : en:Chapter 06
00:18:19.221 : en:Chapter 07
00:19:44.266 : en:Chapter 08
00:21:19.442 : en:Chapter 09
00:24:29.092 : en:Chapter 10
00:29:00.777 : en:Chapter 11
00:32:31.364 : en:Chapter 12
00:36:52.126 : en:Chapter 13
00:38:46.489 : en:Chapter 14
00:40:10.157 : en:Chapter 15
00:41:28.235 : en:Chapter 16
00:43:23.516 : en:Chapter 17
00:49:24.210 : en:Chapter 18
00:50:10.672 : en:Chapter 19
00:52:52.710 : en:Chapter 20
00:55:24.987 : en:Chapter 21
01:01:56.335 : en:Chapter 22
01:05:35.097 : en:Chapter 23
01:11:45.216 : en:Chapter 24
01:14:24.126 : en:Chapter 25
01:16:53.859 : en:Chapter 26
01:19:50.702 : en:Chapter 27
01:21:59.912 : en:Chapter 28
01:23:44.394 : en:Chapter 29
01:27:07.220 : en:Chapter 30


Релиз от:


_________________
Проголосуй за трекер Открытый торрент трекер - RUS-MEDIA.ORG

Проголосуй Открытый торрент трекер - RUS-MEDIA.ORG


Вернуться к началу
 Профиль Отправить личное сообщение  
 
   Похожие торренты   Автор   Торрент   Размер 
В этой теме нет новых непрочитанных сообщений. Похитители тел / Body Snatchers [Фантастика, ужасы, триллер, 1993] BDRip-AVC, Dub

salma3

6 | 3

2.75 ГБ

В этой теме нет новых непрочитанных сообщений. Похитители тел / Body Snatchers [ужасы, фантастика, триллер, детектив, 1993] WEB-DL 720p, Mvo

salma3

6 | 1

3.18 ГБ

В этой теме нет новых непрочитанных сообщений. Похитители тел / Body Snatchers [ужасы, фантастика, 1993] BDRemux 1080р, Dub

salma3

5 | 4

31.37 ГБ

В этой теме нет новых непрочитанных сообщений. Мешки для трупов / Body Bags [Ужасы, фантастика, триллер, комедия, 1993] BDRip 1080p, Mvo

salma3

10 | 0

12.78 ГБ

В этой теме нет новых непрочитанных сообщений. Расплавленное тело / Body Melt [фантастика, ужасы, комедия, 1993] BDRip 1080p, Avo

salma3

46 | 19

7.4 ГБ

В этой теме нет новых непрочитанных сообщений. Расплавленное тело / Body Melt [фантастика, ужасы, комедия, 1993] HDRip-AVC, Avo

salma3

33 | 2

744.2 МБ

В этой теме нет новых непрочитанных сообщений. Мешки для трупов / Body Bags [ужасы, фантастика, комедия, 1993] BDRemux 1080р, Mvo

salma3

9 | 4

22.34 ГБ


Начать новую тему Ответить на тему  [ 1 сообщение ] 




Для Мосгорсуда, Роскомнадзора и рекламодателей:: mosgorsud-torrent[собачка]yandex.ru
cron