Торрент файл
скачать торрент магнет ссылка Добавлен: 06 дек 2017, 22:38
Размер: 1.25 ГБ
Сидеров: 355
Личеров: 107
Статус: (salma3)
Автор

СообщениеДобавлено: 06 дек 2017, 22:38 

Не в сети
Супермодератор
Аватара пользователя
Дата регистрации:
15 фев 2012, 16:44
Возраст: 28
Спасибо: 7226 / 2147
Сообщения: 68191
Год выхода: 2017
Жанр: Триллер, криминал, вестерн
Режиссер: Дэн Глейсер

В ролях: Отем Ризер, Риз Койро, Стив Молони, Mason Mahay, Александра Биллингс, Билл Смитрович, Марк Марголис, Мьюз Уотсон, Билл Даблоу и другие

О фильме:
Анна- мать одиночка, занимающаяся раскопками. Кости и окаменелости, это все, чем она живет. Однажды, брат её бывшего мужа сообщает, что один его знакомый обнаружил зуб динозавра. Они решают отправиться на раскопки, однако они не знали, что этот знакомый задолжал картелю круглую сумму денег.



Страна: США, Bad Medicine Films, Unmarked Van Films, New Heits Entertainment
Продолжительность: 01:30:52
Перевод: Любительский (двухголосый закадровый)[RecentFilms]

Файл
Кодек: XviD
Качество: WEBRip
Видео: 720x304, 23,976 fps, ~1771 Kbps, 0.34 bit/pixel
Аудио rus: AC3, 48 kHz, 2 ch, 192 Kbps

Реклама: присутствует

Семпл

General
Complete name : F:FilmsValley.of.Bones.2017.WEBRip.RecentFilmsValley.of.Bones.2017.WEBRip.RecentFilms.avi
Format : AVI
Format/Info : Audio Video Interleave
File size : 1.25 GiB
Duration : 1h 30mn
Overall bit rate : 1 973 Kbps
Writing application : VirtualDubMod 1.5.10.3 (build 2550/release)
Writing library : VirtualDubMod build 2550/release

Video
ID : 0
Format : MPEG-4 Visual
Format profile : Advanced Simple@L5
Format settings, BVOP : 1
Format settings, QPel : No
Format settings, GMC : No warppoints
Format settings, Matrix : Default (H.263)
Codec ID : XVID
Codec ID/Hint : XviD
Duration : 1h 30mn
Bit rate : 1 771 Kbps
Width : 720 pixels
Height : 304 pixels
Display aspect ratio : 2.35:1
Frame rate : 23.976 (23976/1000) fps
Color space : YUV
Chroma subsampling : 4:2:0
Bit depth : 8 bits
Scan type : Progressive
Compression mode : Lossy
Bits/(Pixel*Frame) : 0.338
Stream size : 1.12 GiB (90%)
Writing library : XviD 73

Audio
ID : 1
Format : AC-3
Format/Info : Audio Coding 3
Mode extension : CM (complete main)
Format settings, Endianness : Big
Codec ID : 2000
Duration : 1h 30mn
Bit rate mode : Constant
Bit rate : 192 Kbps
Channel(s) : 2 channels
Channel positions : Front: L R
Sampling rate : 48.0 KHz
Frame rate : 31.250 fps (1536 spf)
Compression mode : Lossy
Stream size : 125 MiB (10%)
Alignment : Split accross interleaves
Interleave, duration : 42 ms (1.00 video frame)
Interleave, preload duration : 500 ms




Релиз от: RecentFilms


_________________
Проголосуй за трекер Открытый торрент трекер - RUS-MEDIA.ORG

Проголосуй Открытый торрент трекер - RUS-MEDIA.ORG


Вернуться к началу
 Профиль Отправить личное сообщение  
 
   Похожие торренты   Автор   Торрент   Размер 
В этой теме нет новых непрочитанных сообщений. Долина костей / Valley of Bones [Триллер, криминал, вестерн, 2017] WEBRip 720p, Dvo

salma3

132 | 54

2.33 ГБ

В этой теме нет новых непрочитанных сообщений. Долина ям / Valley of Ditches [драма, криминал, ужасы, триллер, 2017] WEB-DLRip, Mvo

salma3

1153 | 116

1.37 ГБ

В этой теме нет новых непрочитанных сообщений. Долина смерти / Death Valley [ужасы, триллер, криминал, 1982] BDRemux 1080p, Avo

salma3

0 | 0

18.53 ГБ

В этой теме нет новых непрочитанных сообщений. Счастливая долина / Happy Valley [S02] [драма, криминал, 2016] HDRip, Mvo [SDI Media]

salma3

14 | 3

4.37 ГБ

В этой теме нет новых непрочитанных сообщений. Счастливая долина / Happy Valley [S02] [Драма, криминал, 2016] HDRip, Mvo [SDI Media] [КПК]

salma3

1 | 27

1.3 ГБ

В этой теме нет новых непрочитанных сообщений. Долина теней / Skyggenes dal / Valley of Shadows [ужасы, 2017] WEB-DLRip, Mvo [GreenРай Studio]

salma3

96 | 23

1.36 ГБ

В этой теме нет новых непрочитанных сообщений. Долина теней / Skyggenes dal / Valley of Shadows (2017) WEB-DLRip 1080p, Mvo [GreenРай Studio]

salma3

91 | 18

2.63 ГБ


Начать новую тему Ответить на тему  [ 1 сообщение ] 




Для Мосгорсуда, Роскомнадзора и рекламодателей:: mosgorsud-torrent[собачка]yandex.ru
cron