Торрент файл
скачать торрент магнет ссылка Добавлен: 05 дек 2017, 22:11
Размер: 3.48 ГБ
Сидеров: 8
Личеров: 7
Статус: (salma3)
Автор

СообщениеДобавлено: 05 дек 2017, 22:11 

Не в сети
Супермодератор
Аватара пользователя
Дата регистрации:
15 фев 2012, 16:44
Возраст: 28
Спасибо: 7165 / 2147
Сообщения: 62013
Год выхода: 1989
Жанр: Драма, триллер
Режиссер: Дж. Ли Томпсон

В ролях: Чарльз Бронсон, Джилл Ито, Перри Лопес, Синтия Гау, Хуан Фернандес, Вероника Каротерс, Джеймс Пакс, Пегги Липтон, Сай Ричардсон, Мэрион Юе, Билл МакКинни, Джералд Кастилло, Николь Эггерт, Эми Хэтэуэй, Мишель Вонг, Сэм Чю мл., Джим Ишида, Лейла Ли Олсен, Хелен Лин, Ричард Э. Батлер, Билл Чо Ли, Джером Тор, Майкл Чонм

О фильме: Была похищена девочка, и стареющий коп из отдела нравов начинает подозревает сутенера, делом которого занимается уже давно. Его дочь сама недавно подверглась приставаниям со стороны выходца из Японии, и оказывается, что похищенная девочка тоже японка… Сможет ли он, плюнув на расовые предрассудки и личную неприязнь честно выполнить свой долг?



Страна: США
Продолжительность: 01:37:54
Перевод: Перевод 1: Профессиональный (многоголосый закадровый)
Перевод 2: Профессиональный (многоголосый закадровый) 5Channal
Субтитры: английские
Оригинальная аудио дорожка: английски

Файл
Качество: BDRip-AVC | BDRemux 1080р
Видео: MPEG4/AVC, 1152x624, 1.85:1, 23.976 (24000/1001) FPS, 4405 kb/s
Аудио 1: AC-3, 48.0 kHz, 192 kb/s, 2.0 | профессиональный
Аудио 2: AC-3, 48.0 kHz, 192 kb/s, 2.0 | 5 канал
Аудио 3: AC-3, 48.0 kHz, 192 kb/s, 2.0 | оригинал


Формат : Matroska
Версия формата : Version 2
Размер файла : 3,48 Гбайт
Продолжительность : 1 ч. 37 м.
Общий поток : 5082 Кбит/сек
Дата кодирования : UTC 2016-08-27 11:14:28
Программа кодирования : mkvmerge v7.6.0 ('Garden of Dreams') 32bit built on Feb 11 2015 00:18:47
Библиотека кодирования : libebml v1.3.1 + libmatroska v1.4.2

Видео
Идентификатор : 1
Формат : AVC
Формат/Информация : Advanced Video Codec
Профиль формата : High@L4.1
Параметр CABAC формата : Да
Параметр ReFrames формата : 11 кадров
Идентификатор кодека : V_MPEG4/ISO/AVC
Продолжительность : 1 ч. 37 м.
Битрейт : 4405 Кбит/сек
Ширина : 1152 пикселя
Высота : 624 пикселя
Соотношение сторон : 1,85:1
Режим частоты кадров : Постоянный
Частота кадров : 23,976 (24000/1001) кадра/сек
Цветовое пространство : YUV
Субдискретизация насыщенности : 4:2:0
Битовая глубина : 8 бит
Тип развёртки : Прогрессивная
Бит/(Пиксели*Кадры) : 0.256
Размер потока : 3,01 Гбайт (87%)
Библиотека кодирования : x264 core 148 r2638 7599210
Настройки программы : cabac=1 / ref=11 / deblock=1:-1:-1 / analyse=0x3:0x133 / me=esa / subme=11 / psy=1 / psy_rd=1.00:0.00 / mixed_ref=1 / me_range=32 / chroma_me=1 / trellis=2 / 8x8dct=1 / cqm=0 / deadzone=21,11 / fast_pskip=1 / chroma_qp_offset=-2 / threads=6 / lookahead_threads=1 / sliced_threads=0 / nr=0 / decimate=0 / interlaced=0 / bluray_compat=0 / constrained_intra=0 / bframes=14 / b_pyramid=2 / b_adapt=2 / b_bias=0 / direct=1 / weightb=1 / open_gop=0 / weightp=2 / keyint=240 / keyint_min=23 / scenecut=40 / intra_refresh=0 / rc_lookahead=50 / rc=crf / mbtree=0 / crf=18.6 / qcomp=0.60 / qpmin=0 / qpmax=69 / qpstep=4 / vbv_maxrate=62500 / vbv_bufsize=78125 / crf_max=0.0 / nal_hrd=none / filler=0 / ip_ratio=1.40 / pb_ratio=1.30 / aq=2:0.90
Default : Да
Forced : Нет
Statistics Tags Issue : mkvmerge v8.5.2 ('Crosses') 32bit 2016-08-26 10:50:17 / mkvmerge v7.6.0 ('Garden of Dreams') 32bit built on Feb 11 2015 00:18:47 2016-08-27 11:14:28
FromStats_BitRate : 4503761
FromStats_Duration : 01:37:54.035000000
FromStats_FrameCount : 140836
FromStats_StreamSize : 3306906244

Аудио #1
Идентификатор : 2
Формат : AC-3
Формат/Информация : Audio Coding 3
Расширение режима : CM (complete main)
Параметр Endianness формата : Big
Идентификатор кодека : A_AC3
Продолжительность : 1 ч. 37 м.
Вид битрейта : Постоянный
Битрейт : 192 Кбит/сек
Каналы : 2 канала
Расположение каналов : Front: L R
Частота : 48,0 КГц
Частота кадров : 31,250 кадров/сек (1536 spf)
Метод сжатия : С потерями
Размер потока : 134 Мбайт (4%)
Заголовок : профессиональный
Язык : Russian
Default : Да
Forced : Нет

Аудио #2
Идентификатор : 3
Формат : AC-3
Формат/Информация : Audio Coding 3
Расширение режима : CM (complete main)
Параметр Endianness формата : Big
Идентификатор кодека : A_AC3
Продолжительность : 1 ч. 37 м.
Вид битрейта : Постоянный
Битрейт : 192 Кбит/сек
Каналы : 2 канала
Расположение каналов : Front: L R
Частота : 48,0 КГц
Частота кадров : 31,250 кадров/сек (1536 spf)
Метод сжатия : С потерями
Размер потока : 134 Мбайт (4%)
Заголовок : закадровый
Язык : Russian
Default : Нет
Forced : Нет

Аудио #3
Идентификатор : 4
Формат : AC-3
Формат/Информация : Audio Coding 3
Расширение режима : CM (complete main)
Параметр Endianness формата : Big
Идентификатор кодека : A_AC3
Продолжительность : 1 ч. 37 м.
Вид битрейта : Постоянный
Битрейт : 192 Кбит/сек
Каналы : 2 канала
Расположение каналов : Front: L R
Частота : 48,0 КГц
Частота кадров : 31,250 кадров/сек (1536 spf)
Метод сжатия : С потерями
Размер потока : 134 Мбайт (4%)
Заголовок : оригинал
Язык : English
Default : Нет
Forced : Нет

Текст
Идентификатор : 5
Формат : UTF-8
Идентификатор кодека : S_TEXT/UTF8
Идентификатор кодека/Информация : UTF-8 Plain Text
Заголовок : английские
Язык : English
Default : Нет
Forced : Нет

Меню
00:00:00.000 : en:00:00:00.000
00:00:10.926 : en:00:00:10.926
00:14:46.176 : en:00:14:46.176
00:24:55.911 : en:00:24:55.911
00:38:19.255 : en:00:38:19.255
00:49:41.143 : en:00:49:41.143
01:00:52.565 : en:01:00:52.565
01:11:39.752 : en:01:11:39.752
01:24:04.787 : en:01:24:04.787


_________________
Проголосуй за трекер Открытый торрент трекер - RUS-MEDIA.ORG

Проголосуй Открытый торрент трекер - RUS-MEDIA.ORG


Вернуться к началу
 Профиль Отправить личное сообщение  
 
   Похожие торренты   Автор   Торрент   Размер 
В этой теме нет новых непрочитанных сообщений. Кинджайт: Запретные темы / Kinjite: Forbidden Subjects [Боевик, триллер, драма, криминал, 1989] BDRip 1080p, Mvo+Avo+Sub

salma3

50 | 27

12.49 ГБ

В этой теме нет новых непрочитанных сообщений. Запретные cемейные pоманы 3 / Forbidden Family Affairs 3 (2016) WEBRip

salma3

9 | 2

1.74 ГБ

В этой теме нет новых непрочитанных сообщений. Forbidden Affairs 7: My Son's Wife / Запретные Романы 7 (James Avalon,, Sweet Sinner) [2016 г., 18+ Teens, Affairs & Love Triangles, Family Roleplay, Feature, WEB-DL, 720p]

max77777

0 | 1

5.61 ГБ

В этой теме нет новых непрочитанных сообщений. Forbidden Family Affairs 7 / Запретные Семейные Романы 7 (Team Skeet) [2017 г., 18+ Teens, Family Roleplay, Gonzo, Cunnilingus, All Sex, Oral, Mature, MILF, WEB-DL] (Split Scenes)

max77777

4 | 0

2.4 ГБ

В этой теме нет новых непрочитанных сообщений. Forbidden Encounters / Запретные Встречи (Holly Randall, Holly Randall Productions) [2016 г., All Sex, Cunnilingus, Oral, BigTits, Big Cocks, DVDRip]

max77777

2 | 0

1.14 ГБ

В этой теме нет новых непрочитанных сообщений. Миллениум / Millennium [фантастика, триллер, драма, детектив, 1989] BDRip-AVC, Dub

salma3

0 | 94

1.71 ГБ

В этой теме нет новых непрочитанных сообщений. Доставить по назначению / The Package [Боевик, триллер, драма, 1989] BDRip-AVC, Dub

salma3

0 | 0

2.73 ГБ


Начать новую тему Ответить на тему  [ 1 сообщение ] 




Для Мосгорсуда, Роскомнадзора и рекламодателей:: mosgorsud-torrent[собачка]yandex.ru
cron