Торрент файл
скачать торрент магнет ссылка Добавлен: 16 апр 2011, 20:39
Размер: 1.46 ГБ
Сидеров: 244
Личеров: 15
Автор

СообщениеДобавлено: 16 апр 2011, 20:39 

Не в сети
Супермодератор
Аватара пользователя
Дата регистрации:
22 май 2010, 11:03
Возраст: 31
Спасибо: 7524 / 13
Сообщения: 49940
Мальчики-налетчики / Takers



Перевод: Профессиональный (полное дублирование), cубтитры: отсутствуют

Слоган:«Чем живёшь, молодежь...»

Формат: DVDRip-AVC, MKV, H.264, AAC
Страна: США
Режиссер: Джон Льюсенхоп
Жанр: Боевик, триллер, криминал
Продолжительность: 01:42:50
Год выпуска: 2010

В ролях: Пол Уокер, Хейден Кристенсен, Мэтт Диллон, Зои Салдана, Марианн Жан-Баптист, Крис Браун, Майкл Или, Идрис Эльба, Стив Харрис, Ти Ай

Описание: Группа молодых изобретательных грабителей совершает дерзкую аферу, в результате которой скрывается с 20 миллионами долларов. Дело осложняется тем, что по следу банды идет не менее сильный соперник — полицейский детектив Джек Уэллс.

Рейтинг Кинопоиск.RU: 6.827
Рейтинг IMDB: 5.1/10
Рейтинг MPAA: PG-13

Видео: 720x432@1024x432 (2.35:1), 25 fps, MPEG4 AVC (x264) , ~1641 kbps avg, 0.206 bit/pixel
Аудио: 48 KHz, AAC, 6 Ch , ~384 kbps avg

Дополнительная информация:
бюджет = $32 000 000
сборы в США = $57 744 720
сборы в мире + $8 963 409 = $66 708 129
сборы в России = $1 263 382




Лицензия!

Video #1
ID : 1
Format : AVC
Format/Info : Advanced Video Codec
Format profile :
Format settings, CABAC : Yes
Format settings, ReFrames : 10 frames
Muxing mode : Container profile=Unknown@3.1
Codec ID : V_MPEG4/ISO/AVC
Duration : 1h 42mn
Bit rate : 1 603 Kbps
Nominal bit rate : 1 641 Kbps
Width : 720 pixels
Height : 432 pixels
Display aspect ratio : 2.35:1
Frame rate : 25.000 fps
Resolution : 24 bits
Colorimetry : 4:2:0
Scan type : Progressive
Bits/(Pixel*Frame) : 0.206
Stream size : 1.15 GiB (79%)
Title : Мальчики-налетчики / Takers (2010) DVDRip
Writing library : x264 core 98 r1649 20cbe10
Encoding settings : cabac=1 / ref=10 / deblock=1:-2:-1 / analyse=0x3:0x133 / me=umh / subme=9 / psy=1 / psy_rd=1.00:0.10 / mixed_ref=1 / me_range=24 / chroma_me=1 / trellis=1 / 8x8dct=1 / cqm=0 / deadzone=21,11 / fast_pskip=0 / chroma_qp_offset=-3 / threads=4 / sliced_threads=0 / nr=0 / decimate=0 / interlaced=0 / constrained_intra=0 / bframes=9 / b_pyramid=2 / b_adapt=2 / b_bias=0 / direct=1 / weightb=1 / weightp=2 / keyint=250 / keyint_min=25 / scenecut=40 / intra_refresh=0 / rc_lookahead=80 / rc=2pass / mbtree=1 / bitrate=1641 / ratetol=1.0 / qcomp=0.60 / qpmin=10 / qpmax=51 / qpstep=4 / cplxblur=20.0 / qblur=0.5 / ip_ratio=1.40 / aq=1:1.00
Language : English
Audio #2
ID : 2
Format : AC-3
Format/Info : Audio Coding 3
Codec ID : A_AC3
Duration : 1h 42mn
Bit rate mode : Constant
Bit rate : 384 Kbps
Channel(s) : 6 channels
Channel positions : Front: L C R, Surround: L R, LFE
Sampling rate : 48.0 KHz
Stream size : 282 MiB (19%)
Title : Дубляж R5
Language : Russian








реклама партнёра


Вернуться к началу
 Профиль Отправить личное сообщение  
 
   Похожие торренты   Автор   Торрент   Размер 
В этой теме нет новых непрочитанных сообщений. Мальчики-налетчики / Takers [боевик, криминал, 2010] BDRip 720p, Dub+Avo [Лицензия]

salma3

200 | 8

4.37 ГБ

В этой теме нет новых непрочитанных сообщений. Налетчики / Marauders [боевик, триллер, криминал, 2016] BDRip-AVC, Avo

salma3

191 | 28

2.13 ГБ

В этой теме нет новых непрочитанных сообщений. Налетчики / Marauders [боевик, триллер, криминал, 2016] BDRip-AVC, Avo

salma3

109 | 59

1.41 ГБ

В этой теме нет новых непрочитанных сообщений. Налётчики из Голливуда / Hollywood Flies [боевик, криминал, 2004] DVDRip, Dvo

salma3

39 | 2

1.46 ГБ

В этой теме нет новых непрочитанных сообщений. Плохие мальчики / Bad Boys [ Триллер, драма, криминал, 1983] BDRemux 1080p, Mvo+Dvo+Sub

salma3

13 | 6

18.43 ГБ

В этой теме нет новых непрочитанных сообщений. Боевик Джексон / Action Jackson [боевик, триллер, комедия, криминал, 1988] BDRip 720p, Dub+Mvo+Avo

salma3

44 | 7

9.35 ГБ

В этой теме нет новых непрочитанных сообщений. Боевик Джексон / Action Jackson [боевик, триллер, комедия, криминал, 1988] BDRip 1080p, Dub+Mvo+Avo

salma3

31 | 34

10.82 ГБ


Начать новую тему Ответить на тему  [ 1 сообщение ] 




Для Мосгорсуда, Роскомнадзора и рекламодателей:: mosgorsud-torrent[собачка]yandex.ru