Торрент файл
скачать торрент магнет ссылка Добавлен: 28 ноя 2017, 16:48
Размер: 746.39 МБ
Сидеров: 100
Личеров: 18
Статус: (salma3)
Автор

СообщениеДобавлено: 28 ноя 2017, 16:48 

Не в сети
Супермодератор
Аватара пользователя
Дата регистрации:
15 фев 2012, 16:44
Возраст: 28
Спасибо: 7285 / 2147
Сообщения: 70259
Год выхода: 2010
Жанр: Боевик, триллер, комедия
Режиссер: Сильвен Уайт

В ролях: Джеффри Дин Морган, Зои Салдана, Крис Эванс, Идрис Эльба, Коламбус Шорт, Оскар Хаенада, Джейсон Патрик, Холт МакКэллани, Питер Макдисси, Питер Френсис Джеймс

О фильме :
«Лузеры» - сумасшедший экшн о предательстве и мести, рассказывающий о членах элитного отряда специального назначения, которых отправили в джунгли Боливии. Им поставили задачу «найти и уничтожить», но на месте выясняется, что команду - Клэя, Дженсена, Рока, Пуча и Кугара - подставили, и они попали под перекрестный огонь двух противоборствующих лагерей. Смертельное противостояние было спровоцировано изнутри могущественным врагом, о котором известно лишь одно: его имя - Макс.



Страна: США / Dark Castle Entertainment, DC Entertainment, Weed Road
Продолжительность: 01:37:00
Перевод: Профессиональный (Полное дублирование)

Файл
Формат: MKV
Качество: BDRip-AVC
Видео: MPEG-4 AVC, 768x320, ~ 998 Кбит/с
Аудио: AAC-LC, 2 ch, ~ 76 Кбит/с
Субтитры: Русские, английские

Общее
Уникальный идентификатор : 183949910242783413362889117205084236310 (0x8A6376CB59E40B29968F653A3F43EA16)
Полное имя : D:MOVIESThe_Losers.2010.ExKinoRay.mkv
Формат : Matroska
Версия формата : Version 4 / Version 2
Размер файла : 746 Мбайт
Продолжительность : 1 ч. 36 м.
Общий поток : 1076 Кбит/сек
Дата кодирования : UTC 2017-11-28 12:24:19
Программа кодирования : mkvmerge v15.0.0 ('Duel with the Devil') 64-bit
Библиотека кодирования : libebml v1.3.5 + libmatroska v1.4.5

Видео
Идентификатор : 1
Формат : AVC
Формат/Информация : Advanced Video Codec
Профиль формата : High@L4.1
Параметр CABAC формата : Да
Параметр RefFrames формата : 10 кадров
Идентификатор кодека : V_MPEG4/ISO/AVC
Продолжительность : 1 ч. 36 м.
Битрейт : 998 Кбит/сек
Ширина : 768 пикселей
Высота : 320 пикселей
Соотношение сторон : 2,40:1
Режим частоты кадров : Постоянный
Частота кадров : 23,976 (24000/1001) кадра/сек
Цветовое пространство : YUV
Субдискретизация насыщенности : 4:2:0
Битовая глубина : 8 бит
Тип развёртки : Прогрессивная
Бит/(Пиксели*Кадры) : 0.169
Размер потока : 692 Мбайт (93%)
Библиотека кодирования : x264 core 152 r2851 ba24899
Настройки программы : cabac=1 / ref=10 / deblock=1:-2:-2 / analyse=0x3:0x133 / me=umh / subme=11 / psy=1 / psy_rd=1.00:0.05 / mixed_ref=1 / me_range=32 / chroma_me=1 / trellis=2 / 8x8dct=1 / cqm=0 / deadzone=21,11 / fast_pskip=0 / chroma_qp_offset=-3 / threads=6 / lookahead_threads=1 / sliced_threads=0 / nr=0 / decimate=0 / interlaced=0 / bluray_compat=0 / constrained_intra=0 / bframes=10 / b_pyramid=2 / b_adapt=2 / b_bias=0 / direct=3 / weightb=1 / open_gop=0 / weightp=2 / keyint=240 / keyint_min=23 / scenecut=40 / intra_refresh=0 / rc_lookahead=40 / rc=2pass / mbtree=0 / bitrate=998 / ratetol=1.0 / qcomp=0.60 / qpmin=0 / qpmax=69 / qpstep=4 / cplxblur=20.0 / qblur=0.5 / vbv_maxrate=50000 / vbv_bufsize=62500 / nal_hrd=none / filler=0 / ip_ratio=1.40 / pb_ratio=1.30 / aq=1:1.00
Default : Да
Forced : Нет

Аудио
Идентификатор : 2
Формат : AAC
Формат/Информация : Advanced Audio Codec
Профиль формата : LC
Идентификатор кодека : A_AAC
Продолжительность : 1 ч. 36 м.
Битрейт : 76,0 Кбит/сек
Каналы : 2 канала
Расположение каналов : Front: L R
Частота : 48,0 КГц
Частота кадров : 46,875 кадров/сек (1024 SPF)
Метод сжатия : С потерями
Задержка видео : 9 мс.
Размер потока : 52,7 Мбайт (7%)
Default : Да
Forced : Нет

Текст #1
Идентификатор : 3
Формат : UTF-8
Идентификатор кодека : S_TEXT/UTF8
Идентификатор кодека/Информация : UTF-8 Plain Text
Продолжительность : 1 ч. 28 м.
Битрейт : 1 бит/сек
ElementCount : 28
Размер потока : 1017 байт (0%)
Заголовок : forced
Язык : Russian
Default : Да
Forced : Да

Текст #2
Идентификатор : 4
Формат : UTF-8
Идентификатор кодека : S_TEXT/UTF8
Идентификатор кодека/Информация : UTF-8 Plain Text
Продолжительность : 1 ч. 31 м.
Битрейт : 91 бит/сек
ElementCount : 1124
Размер потока : 61,1 Кбайт (0%)
Заголовок : -full
Язык : Russian
Default : Нет
Forced : Нет

Текст #3
Идентификатор : 5
Формат : UTF-8
Идентификатор кодека : S_TEXT/UTF8
Идентификатор кодека/Информация : UTF-8 Plain Text
Продолжительность : 1 ч. 31 м.
Битрейт : 54 бит/сек
ElementCount : 1102
Размер потока : 36,6 Кбайт (0%)
Язык : English
Default : Нет
Forced : Нет

Меню
00:00:00.000 : :Chapter 01
00:06:17.085 : :Chapter 02
00:10:47.355 : :Chapter 03
00:14:59.023 : :Chapter 04
00:20:54.878 : :Chapter 05
00:25:52.467 : :Chapter 06
00:31:21.546 : :Chapter 07
00:40:18.249 : :Chapter 08
00:46:43.133 : :Chapter 09
00:54:42.988 : :Chapter 10
00:59:43.204 : :Chapter 11
01:05:21.125 : :Chapter 12
01:12:58.582 : :Chapter 13
01:18:33.959 : :Chapter 14
01:26:28.725 : :Chapter 15
01:29:41.876 : :Chapter 16
01:36:58.813 : :Chapter 17



Релиз от:


_________________
Проголосуй за трекер Открытый торрент трекер - RUS-MEDIA.ORG

Проголосуй Открытый торрент трекер - RUS-MEDIA.ORG


Вернуться к началу
 Профиль Отправить личное сообщение  
 
   Похожие торренты   Автор   Торрент   Размер 
В этой теме нет новых непрочитанных сообщений. Лузеры / The Losers [боевик, триллер, комедия, 2010] WEB-DL 1080p, Dub [Open Matte]

salma3

0 | 0

13.81 ГБ

В этой теме нет новых непрочитанных сообщений. Лузеры / The Losers [боевик, триллер, комедия, 2010] WEB-DLRip-AVC, Dub [Open Matte]

salma3

0 | 0

2.26 ГБ

В этой теме нет новых непрочитанных сообщений. Лузеры / The Losers [Боевик, Триллер, 2010] HDRip, Avo

salma3

197 | 29

1.46 ГБ

В этой теме нет новых непрочитанных сообщений. Из Парижа с любовью / From Paris with Love [боевик, триллер, комедия, 2010] BDRip 1080p, Dub

salma3

0 | 0

12.08 ГБ

В этой теме нет новых непрочитанных сообщений. Боевик Джексон / Action Jackson [боевик, триллер, комедия, криминал, 1988] BDRip 1080p, Dub+Mvo+Avo

salma3

31 | 34

10.82 ГБ

В этой теме нет новых непрочитанных сообщений. Пристрели их / Shoot 'Em Up [боевик, триллер, комедия, 2007] BDRip-AVC, Dub

salma3

0 | 0

745.63 МБ

В этой теме нет новых непрочитанных сообщений. Час пик 2 / Rush Hour 2 [боевик, триллер, комедия, 2001] BDRip 720p, Dub+Sub

salma3

0 | 0

5 ГБ


Начать новую тему Ответить на тему  [ 1 сообщение ] 




Для Мосгорсуда, Роскомнадзора и рекламодателей:: mosgorsud-torrent[собачка]yandex.ru
cron