Торрент файл
скачать торрент магнет ссылка Добавлен: 27 ноя 2017, 21:36
Размер: 1.46 ГБ
Сидеров: 4
Личеров: 2
Статус: (salma3)
Автор

СообщениеДобавлено: 27 ноя 2017, 21:36 

Не в сети
Супермодератор
Аватара пользователя
Дата регистрации:
15 фев 2012, 16:44
Возраст: 28
Спасибо: 7224 / 2147
Сообщения: 68128
Год выхода: 1986
Жанр: комедия, детектив
Режиссер: Амос Коллек

В ролях: Ханна Шигулла, Алек Болдуин, Дебора Харри, Энни Голден, Пол Глисон, Др. Рут Вестхаймер, Рэймонд Серра, Джордж Кайл

О фильме:
Начинающую писательницу Элен преследуют неудачи, и она решает свести счеты с жизнью. Но, раздобыв пистолет, Элен… совершает ограбление, получив в качестве трофея дорогую шубу.
В кармане шубы она находит фотографию загадочной блондинки по имени Лулу и записную книжку с адресом. Идя по следам Лулу, Элен и ее новый друг — крутой полицейский Бад оказываются вовлечены в историю, связанную с гангстерами, торговлей наркотиками и убийствами.



Страна: США
Продолжительность: 01:22:28
Перевод: Профессиональный (многоголосый закадровый), Авторский (одноголосый закадровый) Визгунов

Файл
Качество: DVDRip
Видео: : 704x528 (4:3), 25 fps, XviD MPEG-4 ~1900 kbps avg
Звук:
AC3, 2 ch, ~192 kbps - Профессиональный (многоголосый закадровый)
AC3, 2 ch, ~192 kbps - Авторский (одноголосый закадровый) Визгунов
AC3, 2 ch, ~192 kbps - английский

General
Format : AVI
Format/Info : Audio Video Interleave
File size : 1.46 GiB
Duration : 1 h 22 min
Overall bit rate : 2 536 kb/s
Writing application : VirtualDubMod 1.5.10.2 (build 2542/release)
Writing library : VirtualDubMod build 2542/release

Video
ID : 0
Format : MPEG-4 Visual
Format profile : Advanced Simple@L5
Format settings, BVOP : 2
Format settings, QPel : No
Format settings, GMC : No warppoints
Format settings, Matrix : Custom
Codec ID : XVID
Codec ID/Hint : XviD
Duration : 1 h 22 min
Bit rate : 1 940 kb/s
Width : 704 pixels
Height : 528 pixels
Display aspect ratio : 4:3
Frame rate : 25.000 FPS
Color space : YUV
Chroma subsampling : 4:2:0
Bit depth : 8 bits
Scan type : Progressive
Compression mode : Lossy
Bits/(Pixel*Frame) : 0.209
Stream size : 1.12 GiB (77%)
Writing library : XviD 65

Audio #1
ID : 1
Format : AC-3
Format/Info : Audio Coding 3
Format settings, Endianness : Big
Codec ID : 2000
Duration : 1 h 22 min
Bit rate mode : Constant
Bit rate : 192 kb/s
Channel(s) : 2 channels
Channel positions : Front: L R
Sampling rate : 48.0 kHz
Frame rate : 31.250 FPS (1536 SPF)
Bit depth : 16 bits
Compression mode : Lossy
Stream size : 113 MiB (8%)
Alignment : Split accross interleaves
Interleave, duration : 40 ms (1.00 video frame)
Interleave, preload duration : 500 ms
Service kind : Complete Main

Audio #2
ID : 2
Format : AC-3
Format/Info : Audio Coding 3
Format settings, Endianness : Big
Codec ID : 2000
Duration : 1 h 22 min
Bit rate mode : Constant
Bit rate : 192 kb/s
Channel(s) : 2 channels
Channel positions : Front: L R
Sampling rate : 48.0 kHz
Frame rate : 31.250 FPS (1536 SPF)
Bit depth : 16 bits
Compression mode : Lossy
Stream size : 113 MiB (8%)
Alignment : Split accross interleaves
Interleave, duration : 40 ms (1.00 video frame)
Interleave, preload duration : 500 ms
Service kind : Complete Main

Audio #3
ID : 3
Format : AC-3
Format/Info : Audio Coding 3
Format settings, Endianness : Big
Codec ID : 2000
Duration : 1 h 22 min
Bit rate mode : Constant
Bit rate : 192 kb/s
Channel(s) : 2 channels
Channel positions : Front: L R
Sampling rate : 48.0 kHz
Frame rate : 31.250 FPS (1536 SPF)
Bit depth : 16 bits
Compression mode : Lossy
Stream size : 113 MiB (8%)
Alignment : Split accross interleaves
Interleave, duration : 40 ms (1.00 video frame)
Interleave, preload duration : 500 ms
Service kind : Complete Main


_________________
Проголосуй за трекер Открытый торрент трекер - RUS-MEDIA.ORG

Проголосуй Открытый торрент трекер - RUS-MEDIA.ORG


Вернуться к началу
 Профиль Отправить личное сообщение  
 
   Похожие торренты   Автор   Торрент   Размер 
В этой теме нет новых непрочитанных сообщений. Где ты, Лулу? / Lulu on the Bridge [драма, мелодрама, детектив, музыка, 1998] DVDRip, Mvo

salma3

17 | 2

1.41 ГБ

В этой теме нет новых непрочитанных сообщений. Безумие 13 / Dementia 13 [ужасы, 2017] DVDRip, Mvo

salma3

290 | 82

1.37 ГБ

В этой теме нет новых непрочитанных сообщений. Безумие / The Wackness [Драма, мелодрама, комедия, 2008] BDRip 1080p, Mvo+Dvo+Sub

salma3

202 | 32

7.18 ГБ

В этой теме нет новых непрочитанных сообщений. Безумие / Wild Side [боевик, триллер, 1995] DVDRip, Avo [Director's cut]

salma3

128 | 48

1.44 ГБ

В этой теме нет новых непрочитанных сообщений. Тайная страсть / Скрытое безумие / Hidden Obsession [триллер, 1993] DVDRip, Avo

salma3

47 | 21

1.48 ГБ

В этой теме нет новых непрочитанных сообщений. Закон улиц / Il cittadino si ribella [боевик, триллер, 1974] DVDRip, Avo

salma3

0 | 0

1.46 ГБ

В этой теме нет новых непрочитанных сообщений. Безумие / Abluka / Frenzy (Эмин Альпер / Emin Alper) [2015г., Турция, артхаус, драма, DVDRip-AVC] Sub

Alfredovich

9 | 4

2.18 ГБ


Начать новую тему Ответить на тему  [ 1 сообщение ] 




Для Мосгорсуда, Роскомнадзора и рекламодателей:: mosgorsud-torrent[собачка]yandex.ru
cron