Торрент файл
скачать торрент магнет ссылка Добавлен: 27 ноя 2017, 13:21
Размер: 745.45 МБ
Сидеров: 67
Личеров: 8
Статус: (salma3)
Автор

СообщениеДобавлено: 27 ноя 2017, 13:21 

Не в сети
Супермодератор
Аватара пользователя
Дата регистрации:
15 фев 2012, 16:44
Возраст: 28
Спасибо: 7205 / 2147
Сообщения: 65364
Год выхода: 1989
Жанр: боевик, драма, криминал
Режиссер: Джон Флинн

В ролях: Сильвестр Сталлоне, Дональд Сазерленд, Джон Эймос, Сонни Лэндэм, Том Сайзмор, Фрэнк МакРей, Дарлэнн Флюгел, Уильям Аллен Янг, Ларри Романо, Джордан Лунд

О фильме :
Свободолюбивый Фрэнк Леоне, борец за справедливость, оказавшийся в тюрьме, уверен, что через несколько месяцев покинет ее стены. Он — примерный заключенный, но некоторые тюремщики до сих пор помнят совершенный им побег, закончившийся дополнительным сроком для Фрэнка и испорченной карьерой директора колонии. Пострадавший директор давно «имеет зуб» на него, поэтому в одно чудесное утро героя неожиданно переводят в другую тюрьму, настоящий ад, где служит начальником тот самый Уорден Драмгул. На его послужном списке теперь пятно по вине Фрэнка, и поэтому он клянется устроить заключенному Леоне веселую жизнь, спровоцировать того на побег и доказать, что ненавистный ему зек неисправим. Драмгул — настоящий диктатор в колонии, приказы которого беспрекословно исполняются охранниками и арестантами, и теперь он желает, чтобы Фрэнк как можно дольше задержался в стенах тюрьмы Гетвей.



Страна: США
Продолжительность: 01:48:33
Перевод: Профессиональный (многоголосый, закадровый) R5

Файл
Формат: MKV
Качество: HDRip-AVC
Видео: MPEG-4 AVC, 752x408, ~ 882 Кбит/с
Аудио: AAC-LC, 2 ch, ~ 76 Кбит/с
Субтитры: Русские, английские

Общее
Уникальный идентификатор : 253632512820883874588348738192211730177 (0xBECFD85A848E5E5C929E4471BD545F01)
Полное имя : D:MOVIESLock Up.1989.ExKinoRay.mkv
Формат : Matroska
Версия формата : Version 4 / Version 2
Размер файла : 745 Мбайт
Продолжительность : 1 ч. 48 м.
Общий поток : 960 Кбит/сек
Дата кодирования : UTC 2017-11-26 21:47:01
Программа кодирования : mkvmerge v15.0.0 ('Duel with the Devil') 64-bit
Библиотека кодирования : libebml v1.3.5 + libmatroska v1.4.5

Видео
Идентификатор : 1
Формат : AVC
Формат/Информация : Advanced Video Codec
Профиль формата : High@L4.1
Параметр CABAC формата : Да
Параметр RefFrames формата : 10 кадров
Идентификатор кодека : V_MPEG4/ISO/AVC
Продолжительность : 1 ч. 48 м.
Битрейт : 882 Кбит/сек
Ширина : 752 пикселя
Высота : 408 пикселей
Соотношение сторон : 1,85:1
Режим частоты кадров : Постоянный
Частота кадров : 24,000 кадра/сек
Цветовое пространство : YUV
Субдискретизация насыщенности : 4:2:0
Битовая глубина : 8 бит
Тип развёртки : Прогрессивная
Бит/(Пиксели*Кадры) : 0.120
Размер потока : 685 Мбайт (92%)
Библиотека кодирования : x264 core 152 r2851kMod ba24899
Настройки программы : cabac=1 / ref=10 / deblock=1:-3:-2 / analyse=0x3:0x133 / me=umh / subme=11 / psy=1 / fade_compensate=0.00 / psy_rd=1.00:0.15 / mixed_ref=1 / me_range=32 / chroma_me=1 / trellis=2 / 8x8dct=1 / cqm=0 / deadzone=21,11 / fast_pskip=0 / chroma_qp_offset=-3 / threads=6 / lookahead_threads=1 / sliced_threads=0 / nr=0 / decimate=0 / interlaced=0 / bluray_compat=0 / constrained_intra=0 / bframes=10 / b_pyramid=2 / b_adapt=2 / b_bias=0 / direct=3 / weightb=1 / open_gop=0 / weightp=2 / keyint=240 / keyint_min=23 / scenecut=40 / intra_refresh=0 / rc_lookahead=40 / rc=2pass / mbtree=1 / bitrate=882 / ratetol=1.0 / qcomp=0.60 / qpmin=0 / qpmax=69 / qpstep=4 / cplxblur=20.0 / qblur=0.5 / vbv_maxrate=50000 / vbv_bufsize=62500 / nal_hrd=none / filler=0 / ip_ratio=1.40 / aq=3:1.00
Default : Да
Forced : Нет

Аудио
Идентификатор : 2
Формат : AAC
Формат/Информация : Advanced Audio Codec
Профиль формата : LC
Идентификатор кодека : A_AAC
Продолжительность : 1 ч. 48 м.
Битрейт : 76,0 Кбит/сек
Каналы : 2 канала
Расположение каналов : Front: L R
Частота : 48,0 КГц
Частота кадров : 46,875 кадров/сек (1024 SPF)
Метод сжатия : С потерями
Задержка видео : 9 мс.
Размер потока : 59,0 Мбайт (8%)
Язык : Russian
Default : Да
Forced : Нет

Текст #1
Идентификатор : 3
Формат : UTF-8
Идентификатор кодека : S_TEXT/UTF8
Идентификатор кодека/Информация : UTF-8 Plain Text
Продолжительность : 1 ч. 43 м.
Битрейт : 76 бит/сек
ElementCount : 956
Размер потока : 58,2 Кбайт (0%)
Язык : Russian
Default : Нет
Forced : Нет

Текст #2
Идентификатор : 4
Формат : UTF-8
Идентификатор кодека : S_TEXT/UTF8
Идентификатор кодека/Информация : UTF-8 Plain Text
Продолжительность : 1 ч. 42 м.
Битрейт : 52 бит/сек
ElementCount : 1016
Размер потока : 39,2 Кбайт (0%)
Язык : English
Default : Нет
Forced : Нет



Релиз от:


_________________
Проголосуй за трекер Открытый торрент трекер - RUS-MEDIA.ORG

Проголосуй Открытый торрент трекер - RUS-MEDIA.ORG


Вернуться к началу
 Профиль Отправить личное сообщение  
 
   Похожие торренты   Автор   Торрент   Размер 
В этой теме нет новых непрочитанных сообщений. Тюряга / Lock Up [боевик, драма, криминал, 1989] BDRip 720p, Mvo

salma3

0 | 0

8.5 ГБ

В этой теме нет новых непрочитанных сообщений. Чёрный дождь / Black Rain [боевик, триллер, криминал, 1989] HDRip, Mvo

salma3

374 | 18

1.45 ГБ

В этой теме нет новых непрочитанных сообщений. Делай как надо! / Do the Right Thing [Комедия, драма, криминал, 1989] HDRip, Dvo

salma3

76 | 13

1.46 ГБ

В этой теме нет новых непрочитанных сообщений. Под прикрытием / Renegades [боевик, триллер, драма, 1989] HDRip, Dvo

salma3

0 | 0

1.45 ГБ

В этой теме нет новых непрочитанных сообщений. Каратель / The Punisher [Боевик, триллер, драма, 1989] HDRip-AVC, Mvo

salma3

78 | 16

745.24 МБ

В этой теме нет новых непрочитанных сообщений. Жестокий полицейский / Violent Cop [боевик, триллер, драма, 1989] HDRip, Dvo

salma3

51 | 13

1.45 ГБ

В этой теме нет новых непрочитанных сообщений. Лучшие из лучших / Best of the Best [боевик, триллер, драма, спорт, 1989] HDRip, Dub

salma3

77 | 16

1.44 ГБ


Начать новую тему Ответить на тему  [ 1 сообщение ] 




Для Мосгорсуда, Роскомнадзора и рекламодателей:: mosgorsud-torrent[собачка]yandex.ru
cron