Торрент файл
скачать торрент магнет ссылка Добавлен: 25 ноя 2017, 21:59
Размер: 2.9 ГБ
Сидеров: 13
Личеров: 2
Статус: (salma3)
Автор

СообщениеДобавлено: 25 ноя 2017, 21:59 

В сети
Супермодератор
Аватара пользователя
Дата регистрации:
15 фев 2012, 16:44
Возраст: 29
Спасибо: 7379 / 2147
Сообщения: 76074
Год выхода: 2003
Жанр: триллер, детектив
Режиссер: Майк Фиггис

В ролях: Дэннис Куэйд, Шэрон Стоун, Стивен Дорфф, Джульетт Льюис, Кристен Стюарт, Райан Уилсон, Дэна Эскелсон, Кристофер Пламмер, Саймон Рейнольдс, Кэтлин Дуборг, Пола Бранкати, Эйдан Дивайн, Уэйн Робсон, Джордан Петтл, Рэй Пэйсли, Шона Блэк, Питер Аутербридж, Карен Глэйв, Лесли Дилли, Джордж Бьюза

О фильме:
Супруги Купер и Лия Тилсон годами ждали, чтобы осуществить свою заветную мечту о загородном доме. И, наконец, их чаяния сбылись; они — владельцы необычайно красивого и большого поместья «Холодный ручей». Провинциальный покой, свежий воздух, огромный участок — идеальное место, чтобы достойно встретить старость и дожить до конца дней своих, вот только этот конец может наступить куда раньше, чем предполагалось. Ужасное, кровавое прошлое усадьбы, о котором героев «забыли» предупредить, вторгается в их настоящее с бывшим владельцем, преступником-психопатом, вернувшимся из тюрьмы. И этот жуткий человек не остановится ни перед чем, чтобы вернуть дом себе. Вернуть любой ценой…



Страна: США, Канада, Великобритания
Продолжительность: 01:58:56
Перевод: Профессиональный [многоголосый]

Файл
Кодек: x264
Качество: BDRip-AVC
Видео: MPEG-4 AVC, 2590 Кбит/с, 1024x552, 23.976 Кадр/с
Аудио #1: AC3, 6 ch, 448 Кбит/с | Русский
Аудио #2: AC3, 6 ch, 448 Кбит/с | Aнглийский
Субтитры: Русские, английские


Общее
Уникальный идентификатор : 173583043645978538321621062055311012363 (0x8296E0CF10BB77379DAD82F530ED720B)
Полное имя : Cold.Creek.Manor.2003.BDRip-AVC.mkv
Формат : Matroska
Версия формата : Version 4 / Version 2
Размер файла : 2,90 Гбайт
Продолжительность : 1 ч. 58 м.
Общий поток : 3487 Кбит/сек
Название фильма : Cold.Creek.Manor.2003.BDRip-AVC by Koenig
Дата кодирования : UTC 2017-11-25 14:56:50
Программа кодирования : mkvmerge v12.0.0 ('Trust / Lust') 32bit
Библиотека кодирования : libebml v1.3.4 + libmatroska v1.4.5
Обложка : Yes
Attachments : cover.jpg

Видео
Идентификатор : 1
Формат : AVC
Формат/Информация : Advanced Video Codec
Профиль формата : High@L4.1
Параметр CABAC формата : Да
Параметр ReFrames формата : 12 кадров
Идентификатор кодека : V_MPEG4/ISO/AVC
Продолжительность : 1 ч. 58 м.
Битрейт : 2590 Кбит/сек
Ширина : 1024 пикселя
Высота : 552 пикселя
Соотношение сторон : 1,85:1
Режим частоты кадров : Постоянный
Частота кадров : 23,976 (24000/1001) кадра/сек
Цветовое пространство : YUV
Субдискретизация насыщенности : 4:2:0
Битовая глубина : 8 бит
Тип развёртки : Прогрессивная
Бит/(Пиксели*Кадры) : 0.191
Размер потока : 2,15 Гбайт (74%)
Заголовок : Cold.Creek.Manor.2003.BDRip-AVC
Библиотека кодирования : x264 core 152 r2851 ba24899
Настройки программы : cabac=1 / ref=12 / deblock=1:-3:-3 / analyse=0x3:0x133 / me=umh / subme=10 / psy=1 / psy_rd=1.08:0.10 / mixed_ref=1 / me_range=32 / chroma_me=1 / trellis=2 / 8x8dct=1 / cqm=0 / deadzone=21,11 / fast_pskip=0 / chroma_qp_offset=-3 / threads=3 / lookahead_threads=1 / sliced_threads=0 / nr=0 / decimate=1 / interlaced=0 / bluray_compat=0 / constrained_intra=0 / bframes=14 / b_pyramid=2 / b_adapt=2 / b_bias=0 / direct=3 / weightb=1 / open_gop=0 / weightp=2 / keyint=240 / keyint_min=23 / scenecut=40 / intra_refresh=0 / rc_lookahead=40 / rc=2pass / mbtree=1 / bitrate=2590 / ratetol=1.0 / qcomp=0.60 / qpmin=10 / qpmax=51 / qpstep=4 / cplxblur=20.0 / qblur=0.5 / vbv_maxrate=50000 / vbv_bufsize=62500 / nal_hrd=none / filler=0 / ip_ratio=1.40 / aq=1:1.00
Язык : English
Default : Да
Forced : Нет

Аудио #1
Идентификатор : 2
Формат : AC-3
Формат/Информация : Audio Coding 3
Параметр Endianness формата : Big
Идентификатор кодека : A_AC3
Продолжительность : 1 ч. 58 м.
Вид битрейта : Постоянный
Битрейт : 448 Кбит/сек
Каналы : 6 каналов
Расположение каналов : Front: L C R, Side: L R, LFE
Частота : 48,0 КГц
Частота кадров : 31,250 кадров/сек (1536 spf)
Битовая глубина : 16 бит
Метод сжатия : С потерями
Размер потока : 381 Мбайт (13%)
Заголовок : MVO
Язык : Russian
ServiceKind/String : Complete Main
Default : Да
Forced : Нет

Аудио #2
Идентификатор : 3
Формат : AC-3
Формат/Информация : Audio Coding 3
Параметр Endianness формата : Big
Идентификатор кодека : A_AC3
Продолжительность : 1 ч. 58 м.
Вид битрейта : Постоянный
Битрейт : 448 Кбит/сек
Каналы : 6 каналов
Расположение каналов : Front: L C R, Side: L R, LFE
Частота : 48,0 КГц
Частота кадров : 31,250 кадров/сек (1536 spf)
Битовая глубина : 16 бит
Метод сжатия : С потерями
Размер потока : 381 Мбайт (13%)
Язык : English
ServiceKind/String : Complete Main
Default : Нет
Forced : Нет

Текст #1
Идентификатор : 4
Формат : UTF-8
Идентификатор кодека : S_TEXT/UTF8
Идентификатор кодека/Информация : UTF-8 Plain Text
Продолжительность : 1 ч. 58 м.
Битрейт : 65 бит/сек
ElementCount : 1450
Размер потока : 56,6 Кбайт (0%)
Язык : Russian
Default : Да
Forced : Нет

Текст #2
Идентификатор : 5
Формат : UTF-8
Идентификатор кодека : S_TEXT/UTF8
Идентификатор кодека/Информация : UTF-8 Plain Text
Продолжительность : 1 ч. 57 м.
Битрейт : 52 бит/сек
ElementCount : 1897
Размер потока : 45,5 Кбайт (0%)
Язык : English
Default : Нет
Forced : Нет

Меню
00:00:00.000 : en:New York / Opening Credits
00:11:01.369 : en:Trespassing
00:20:37.236 : en:Surprise!
00:32:29.656 : en:"He's a Creep"
00:43:25.352 : en:Mr. Massie
00:54:37.607 : en:Fired
01:06:53.175 : en:Night Chase
01:14:54.364 : en:Trouble
01:25:32.085 : en:Circumstantial
01:34:08.309 : en:"I Know Where It Is"
01:43:53.268 : en:Last Stand
01:53:49.197 : en:End Credits



_________________
Проголосуй за трекер Открытый торрент трекер - RUS-MEDIA.ORG

Проголосуй Открытый торрент трекер - RUS-MEDIA.ORG


Вернуться к началу
 Профиль Отправить личное сообщение  
 
   Похожие торренты   Автор   Торрент   Размер 
В этой теме нет новых непрочитанных сообщений. Дьявольский особняк / Cold Creek Manor [триллер, драма, детектив, 2003] HDRip, Mvo

salma3

96 | 15

1.46 ГБ

В этой теме нет новых непрочитанных сообщений. Особняк Андэрс / Особняк / Anders Manor / The Manor [Ужасы, 2018] WEBRip 720p, Dvo

salma3

50 | 31

3.05 ГБ

В этой теме нет новых непрочитанных сообщений. Особняк Андэрс / Особняк / Anders Manor / The Manor [Ужасы, 2018] WEBRip, Dvo

salma3

89 | 44

1.23 ГБ

В этой теме нет новых непрочитанных сообщений. Кровавый ручей / Blood Creek [Ужасы, мистика, триллер, 2009] BDRip 720p, Avo

salma3

17 | 69

4.37 ГБ

В этой теме нет новых непрочитанных сообщений. Холодный Ноябрь / Cold November [Триллер, драма, семейный, 2017] WEBRip, Dvo

salma3

0 | 0

1.15 ГБ

В этой теме нет новых непрочитанных сообщений. Жестокий ручей / Mean Creek [драма, криминал, 2004] WEB-DL 1080p, Dvo

salma3

0 | 0

3.75 ГБ

В этой теме нет новых непрочитанных сообщений. Холодный Ноябрь / Cold November [Триллер, драма, семейный, 2017] WEBRip 720p, Dvo

salma3

0 | 0

3.39 ГБ


Начать новую тему Ответить на тему  [ 1 сообщение ] 




Для Мосгорсуда, Роскомнадзора и рекламодателей:: mosgorsud-torrent[собачка]yandex.ru
cron