Торрент файл
скачать торрент магнет ссылка Добавлен: 25 ноя 2017, 12:21
Размер: 1.39 ГБ
Сидеров: 95
Личеров: 4
Статус: (salma3)
Автор

СообщениеДобавлено: 25 ноя 2017, 12:21 

Не в сети
Супермодератор
Аватара пользователя
Дата регистрации:
15 фев 2012, 16:44
Возраст: 28
Спасибо: 7290 / 2147
Сообщения: 70823
Год выхода: 2017
Жанр: Триллер
Режиссер: Бенджамин Арфманн

В ролях: Дилан Спроус, Рэндолл Парк, Кристофер Бауэр, Брук Диллман, Рэй Грэй, Кент Осборн, Роуэн Смит, Роберт Лонгстрит, Мэттью Дж. Эванс, Марк Келли и другие

О фильме:
Лукас Уорд - прилежный ученик, отличник, победитель всех шахматных турниров. На пути к цели Лукас не остановится ни перед чем. Самое главное для него, это быть лучше всех. Даже не пытайтесь поставить ему плохую оценку. Лукасу это очень не понравится.



Страна: США, BoulderLight Pictures, Making Film
Продолжительность: 01:27:23
Перевод: Любительский (двухголосый закадровый)[RecentFilms]

Файл
Кодек: XviD
Качество: WEBRip
Видео: 720x304 , 23,976 fps, ~2074 Kbps, 0.40 bit/pixel
Аудио rus: AC3, 48 kHz, 2 ch, 192 Kbps

Реклама: присутствует

Семпл

General
Complete name : F:FilmsDismissed.2017.WEBRip.RecentFilmsDismissed.2017.WEBRip.RecentFilms.avi
Format : AVI
Format/Info : Audio Video Interleave
Format profile : OpenDML
File size : 1.39 GiB
Duration : 1h 27mn
Overall bit rate : 2 273 Kbps
Writing application : Lavf57.71.100

Video
ID : 0
Format : MPEG-4 Visual
Format profile : Advanced Simple@L5
Format settings, BVOP : 1
Format settings, QPel : No
Format settings, GMC : No warppoints
Format settings, Matrix : Default (H.263)
Codec ID : XVID
Codec ID/Hint : XviD
Duration : 1h 27mn
Bit rate : 2 069 Kbps
Width : 720 pixels
Height : 304 pixels
Display aspect ratio : 2.35:1
Frame rate : 23.976 (24000/1001) fps
Color space : YUV
Chroma subsampling : 4:2:0
Bit depth : 8 bits
Scan type : Progressive
Compression mode : Lossy
Bits/(Pixel*Frame) : 0.394
Stream size : 1.26 GiB (91%)
Writing library : XviD 67

Audio
ID : 1
Format : AC-3
Format/Info : Audio Coding 3
Mode extension : CM (complete main)
Format settings, Endianness : Big
Codec ID : 2000
Duration : 1h 27mn
Bit rate mode : Constant
Bit rate : 192 Kbps
Channel(s) : 2 channels
Channel positions : Front: L R
Sampling rate : 48.0 KHz
Frame rate : 31.250 fps (1536 spf)
Bit depth : 16 bits
Compression mode : Lossy
Stream size : 120 MiB (8%)
Alignment : Aligned on interleaves
Interleave, duration : 32 ms (0.77 video frame)



Релиз от: RecentFilms


_________________
Проголосуй за трекер Открытый торрент трекер - RUS-MEDIA.ORG

Проголосуй Открытый торрент трекер - RUS-MEDIA.ORG


Вернуться к началу
 Профиль Отправить личное сообщение  
 
   Похожие торренты   Автор   Торрент   Размер 
В этой теме нет новых непрочитанных сообщений. Урок окончен / Dismissed [триллер, 2017] WEB-DLRip, Avo

salma3

39 | 12

1.46 ГБ

В этой теме нет новых непрочитанных сообщений. Урок окончен / Dismissed [Триллер, 2017] WEB-DL 1080p, Avo

salma3

319 | 10

3.25 ГБ

В этой теме нет новых непрочитанных сообщений. Урок / The Lesson [ужасы, триллер, 2015] HDRip, Avo

salma3

524 | 91

1.15 ГБ

В этой теме нет новых непрочитанных сообщений. Последний урок / After School Special [комедия, криминал, приключения, 2017] WEB-DLRip, Mvo

salma3

888 | 202

1.36 ГБ

В этой теме нет новых непрочитанных сообщений. Урок выживания / Detention [Боевик, триллер, драма, 2003] BDRip, Dvo

salma3

155 | 19

1.45 ГБ

В этой теме нет новых непрочитанных сообщений. Урок / The Lesson [ужасы, триллер, драма, 2015] BDRip 1080p, Avo

salma3

0 | 0

6.99 ГБ

В этой теме нет новых непрочитанных сообщений. Урок выживания / Detention [Боевик, триллер, драма, 2003] BDRip 1080р, Dvo

salma3

52 | 6

9.52 ГБ


Начать новую тему Ответить на тему  [ 1 сообщение ] 




Для Мосгорсуда, Роскомнадзора и рекламодателей:: mosgorsud-torrent[собачка]yandex.ru
cron