Торрент файл
скачать торрент магнет ссылка Добавлен: 16 апр 2011, 20:21
Размер: 2.26 ГБ
Сидеров: 20
Личеров: 4
Автор

СообщениеДобавлено: 16 апр 2011, 20:21 

Не в сети
Супермодератор
Аватара пользователя
Дата регистрации:
22 май 2010, 11:03
Возраст: 31
Спасибо: 7524 / 13
Сообщения: 49940
[b]Лузеры / The Losers[/b]


Перевод: Профессиональный (полное дублирование)
cубтитры: отсутствуют
Формат: HDRip-AVC, MKV, H.264, AC3
Страна: США

Слоган: «А вы были бы уже мертвы.»

Режиссер: Сильвен Уайт
Жанр: Боевик, триллер, драма, приключения, детектив
Продолжительность: 01:36:59
Год выпуска: 2010

В ролях: Джеффри Дин Морган, Зои Салдана, Крис Эванс, Идрис Эльба, Коламбус Шорт, Оскар Хаенада, Джейсон Патрик, Холт МакКэллани, Питер Макдисси, Питер Френсис Джеймс

Описание: «Лузеры» — сумасшедший экшн о предательстве и мести, рассказывающий о членах элитного отряда специального назначения, которых отправили в джунгли Боливии. Им поставили задачу «найти и уничтожить», но на месте выясняется, что команду — Клэя, Дженсена, Рока, Пуча и Кугара — подставили, и они попали под перекрестный огонь двух противоборствующих лагерей. Смертельное противостояние было спровоцировано изнутри могущественным врагом, о котором известно лишь одно: его имя — Макс.

Решив сыграть на том, что они числятся погибшими, члены отряда уходят в глубокое подполье и составляют опасный план по восстановлению своей репутации и сведению счетов с Максом. К ним присоединяется загадочная Аиша — красавица-агент, работающая по заданию, но вполне способная внести коррективы в заданный сверху план. В перерывах между разборками друг с другом им необходимо всегда оставаться на шаг впереди разъезжающего по всему миру Макса — беспощадного негодяя, намеревающегося втянуть мир в новую высокотехнологичную мировую войну только ради собственной выгоды. Если они смогут победить Макса и одновременно спасти мир, это будет настоящей удачей для команды, известной теперь как ЛУЗЕРЫ.


Рейтинг на КиноПоиск.RU: 6.220
Рейтинг на IMDB: 6.4/10
Рейтинг MPAA: PG-13

Видео: 1280x534,( 2.35:1), 23.976 fps ,MPEG4 AVC (x264) , 3005 kbps,0.176 bit/pixel
Аудио: 48 kHz, AC3, 6 ch, 384.00 kbps



Complete name: \The_Losers.2010.HDRip_AVC.mkv
Format: Matroska
File size: 2.26 GiB
Duration: 1h 36mn
Overall bit rate: 3 338 Kbps
Movie name: Rip by NigAndr (NOLIMITS-TEAM.RU)
Encoded date: UTC 2010-09-14 20:04:15
Writing application: mkvmerge v3.0.0 ('Hang up your Hang-Ups') built on Dec 12 2009 15:20:35
Writing library: libebml v0.7.9 + libmatroska v0.8.1

Video
ID: 1
Format: AVC
Format/Info: Advanced Video Codec
Format profile:
Format settings, CABAC: Yes
Format settings, ReFrames: 3 frames
Muxing mode: Container profile=Unknown@4.1
Codec ID: V_MPEG4/ISO/AVC
Duration: 1h 36mn
Bit rate: 2 888 Kbps
Nominal bit rate: 3 005 Kbps
Width: 1 280 pixels
Height: 534 pixels
Display aspect ratio: 2.35:1
Original display aspect ratio: 2.35:1
Frame rate: 23.976 fps
Resolution: 8 bits
Colorimetry: 4:2:0
Scan type: Progressive
Bits/(Pixel*Frame): 0.176
Stream size: 1.95 GiB (86%)
Title: Лузеры.(2010).[NoLimits-Team.ru]
Writing library: x264 core 104 r1713 c276662
Encoding settings: cabac=1 / ref=3 / deblock=1:0:0 / analyse=0x3:0x113 / me=hex / subme=7 / psy=1 / psy_rd=1.00:0.00 / mixed_ref=1 / me_range=16 / chroma_me=1 / trellis=1 / 8x8dct=1 / cqm=0 / deadzone=21,11 / fast_pskip=1 / chroma_qp_offset=-2 / threads=6 / sliced_threads=0 / slices=4 / nr=0 / decimate=1 / interlaced=0 / constrained_intra=0 / bframes=3 / b_pyramid=1 / b_adapt=1 / b_bias=0 / direct=1 / weightb=1 / open_gop=0 / weightp=0 / keyint=24 / keyint_min=1 / scenecut=40 / intra_refresh=0 / rc_lookahead=24 / rc=abr / mbtree=1 / bitrate=3005 / ratetol=1.0 / qcomp=0.60 / qpmin=0 / qpmax=51 / qpstep=4 / vbv_maxrate=17500 / vbv_bufsize=14500 / ip_ratio=1.10 / aq=1:1.00 / nal_hrd=vbr
Language: English

Audio
ID: 2
Format: AC-3
Format/Info: Audio Coding 3
Codec ID: A_AC3
Duration: 1h 36mn
Bit rate mode: Constant
Bit rate: 384 Kbps
Channel(s): 6 channels
Channel positions: Front: L C R, Surround: L R, LFE
Sampling rate: 48.0 KHz
Stream size: 266 MiB (12%)
Title: AC3 5.1 384 kbps: Дубляж (R5)
Language: Russian

Text
ID: 3
Format: UTF-8
Codec ID: S_TEXT/UTF8
Codec ID/Info: UTF-8 Plain Text
Title: Форсированные R5
Language: Russian













реклама партнёра


Вернуться к началу
 Профиль Отправить личное сообщение  
 
   Похожие торренты   Автор   Торрент   Размер 
В этой теме нет новых непрочитанных сообщений. Недооформлен Самолет президента / Air Force One (Вольфганг Петерсен) [1997, боевик, триллер, драма, приключения, HDRip-AVC] DUB+MVO+AVO / Фильмы HDRip Данный торрент является блокированным, причина: недооформленный торрент

Kochesov

11 | 1

3.57 ГБ

В этой теме нет новых непрочитанных сообщений. Восставший / Risen [боевик, драма, детектив, приключения, 2016] HDRip, Mvo [iTunes]

salma3

109 | 6

1.37 ГБ

В этой теме нет новых непрочитанных сообщений. Без вести пропавшие / Missing in Action [боевик, триллер, драма, приключения, военный, 1984] BDRip 720p, Mvo+Avo+Sub

salma3

10 | 5

6.18 ГБ

В этой теме нет новых непрочитанных сообщений. Банши / Banshee [S01] [боевик, триллер, драма, криминал, детектив, 2014] HDRip, Mvo [Amedia]

Dracon

458 | 100

4.07 ГБ

В этой теме нет новых непрочитанных сообщений. Обратная тяга / Backdraft [Боевик, триллер, драма, криминал, детектив, 1991] HDRip, Avo

salma3

23 | 1

1.46 ГБ

В этой теме нет новых непрочитанных сообщений. На расстоянии удара / Striking Distance [детектив, триллер, драма, боевик, 1993] HDRip, Dub

salma3

33 | 3

1.45 ГБ

В этой теме нет новых непрочитанных сообщений. Преследуемый / Persecuted (Дэниэл Луско) [Боевик, триллер, драма, детектив, 2014] HDRip, Mvo [iTunes]

Dracon

1 | 0

1.37 ГБ


Начать новую тему Ответить на тему  [ 1 сообщение ] 




Для Мосгорсуда, Роскомнадзора и рекламодателей:: mosgorsud-torrent[собачка]yandex.ru