Торрент файл
скачать торрент магнет ссылка Добавлен: 24 ноя 2017, 12:22
Размер: 1.73 ГБ
Сидеров: 394
Личеров: 15
Статус: (salma3)
Автор

СообщениеДобавлено: 24 ноя 2017, 12:22 

Не в сети
Супермодератор
Аватара пользователя
Дата регистрации:
15 фев 2012, 16:44
Возраст: 28
Спасибо: 7224 / 2147
Сообщения: 67851
Год выпуска: 2017
Жанр: боевик, триллер, фэнтези
Режиссер: Брайан Смрз

В ролях: Рутгер Хауэр, Итан Хоук, Пол Андерсон, Лиам Каннингэм, Натали Болтт, Таня ван Граан, Хаким Кае-Казим, Сюй Цин, Эйдан Уайток, Эндрю Моргадо

Описание:
Главный герой – невероятно опытный и хладнокровный киллер, один из лучших в своем непростом деле. Неоднократно ему удавалось выполнять сложнейшие задания, без лишних колебаний отправляя на тот свет любого, на кого укажет щедрый заказчик. Неудивительно, что за долгие годы работы на личном счету Тревеса Конрада накопилось немало жертв. Однако и ему пришлось распрощаться с жизнью из-за рокового стечения обстоятельств. Вот только так вышло, что жизненная энергия вновь вернулась в тело Тревеса. Теперь в его распоряжении всего лишь 24 часа, чтобы воспользоваться дарованным небесами шансом и искупить свои многочисленные грехи, и тем самым спаси собственную душу от гиены огненной. В прошлом киллер хладнокровно обрывал жизни, совершенно не задумываясь от тех последствиях, что несли его действия. Он искренне считал, что просто выполняет работу, пусть и не совсем привычную, но зато весьма прибыльную. Вопросы этики и морали его совершенно не волновали. Чтобы справиться с последним, и самым важным заданием, Тревесу необходимо в кратчайшие сроки отыскать киллера, который подстрелил его, и вместе с ним постараться найти выход из этой весьма непростой ситуации.



Страна: США, Гонконг
Продолжительность: 01:34:58
Перевод: Дублированный [iTunes]

Качество:WEB-DLRip-AVC
Видео: 1024x424 (2.40:1), 23,976 fps, x264 ~1878 kbps avg, 0.180 bit/pixel
Аудио1: 48 kHz, AC3 Dolby Digital, 3/2 (L,C,R,l,r) + LFE ch, ~384.00 kbps avg | RUS
Аудио2: 48 kHz, AC3 Dolby Digital, 3/2 (L,C,R,l,r) + LFE ch, ~384.00 kbps avg | ENG

Общее
Уникальный идентификатор : 205833423475585938512548882661374334917 (0x9ADA134C4875EC5B9D5F19A0F5D697C5)
Полное имя : E:OlLanDGroup24.Hours.to.Live.2017.WEB-DLRip(AVC).OlLanDGroup.mkv
Формат : Matroska
Версия формата : Version 2
Размер файла : 1,73 Гбайт
Продолжительность : 1 ч. 33 м.
Общий поток : 2647 Кбит/сек
Название фильма : 24.Hours.to.Live.2017 #TorpedoUK#
Дата кодирования : UTC 2017-11-24 01:10:55
Программа кодирования : mkvmerge v7.8.0 ('River Man') 32bit built on Apr 3 2015 12:11:22
Библиотека кодирования : libebml v1.3.1 + libmatroska v1.4.2
Обложка : Yes
Attachments : small_cover.jpg / small_cover_land.jpg / cover.jpg / cover_land.jpg

Видео
Идентификатор : 1
Формат : AVC
Формат/Информация : Advanced Video Codec
Профиль формата : High@L4.1
Параметр CABAC формата : Да
Параметр ReFrames формата : 10 кадров
Идентификатор кодека : V_MPEG4/ISO/AVC
Продолжительность : 1 ч. 33 м.
Битрейт : 1878 Кбит/сек
Ширина : 1024 пикселя
Высота : 424 пикселя
Соотношение сторон : 2,40:1
Режим частоты кадров : Постоянный
Частота кадров : 23,976 (24000/1001) кадра/сек
Цветовое пространство : YUV
Субдискретизация насыщенности : 4:2:0
Битовая глубина : 8 бит
Тип развёртки : Прогрессивная
Бит/(Пиксели*Кадры) : 0.180
Размер потока : 1,19 Гбайт (69%)
Библиотека кодирования : x264 core 146 r2538 121396c
Настройки программы : cabac=1 / ref=10 / deblock=1:-3:-3 / analyse=0x3:0x133 / me=umh / subme=11 / psy=1 / psy_rd=1.00:0.05 / mixed_ref=1 / me_range=48 / chroma_me=1 / trellis=2 / 8x8dct=1 / cqm=0 / deadzone=21,11 / fast_pskip=1 / chroma_qp_offset=-3 / threads=6 / lookahead_threads=1 / sliced_threads=0 / nr=0 / decimate=1 / interlaced=0 / bluray_compat=0 / constrained_intra=0 / bframes=10 / b_pyramid=2 / b_adapt=2 / b_bias=0 / direct=3 / weightb=1 / open_gop=0 / weightp=2 / keyint=240 / keyint_min=23 / scenecut=40 / intra_refresh=0 / rc_lookahead=40 / rc=2pass / mbtree=0 / bitrate=1878 / ratetol=1.0 / qcomp=0.60 / qpmin=0 / qpmax=69 / qpstep=4 / cplxblur=20.0 / qblur=0.5 / vbv_maxrate=50000 / vbv_bufsize=62500 / nal_hrd=none / filler=0 / ip_ratio=1.40 / pb_ratio=1.30 / aq=1:1.00
Язык : English
Default : Да
Forced : Нет

Аудио #1
Идентификатор : 2
Формат : AC-3
Формат/Информация : Audio Coding 3
Расширение режима : CM (complete main)
Параметр Endianness формата : Big
Идентификатор кодека : A_AC3
Продолжительность : 1 ч. 33 м.
Вид битрейта : Постоянный
Битрейт : 384 Кбит/сек
Каналы : 6 каналов
Расположение каналов : Front: L C R, Side: L R, LFE
Частота : 48,0 КГц
Частота кадров : 31,250 кадров/сек (1536 spf)
Битовая глубина : 16 бит
Метод сжатия : С потерями
Размер потока : 257 Мбайт (15%)
Заголовок : iTunes
Язык : Russian
Default : Да
Forced : Нет

Аудио #2
Идентификатор : 3
Формат : AC-3
Формат/Информация : Audio Coding 3
Расширение режима : CM (complete main)
Параметр Endianness формата : Big
Идентификатор кодека : A_AC3
Продолжительность : 1 ч. 33 м.
Вид битрейта : Постоянный
Битрейт : 384 Кбит/сек
Каналы : 6 каналов
Расположение каналов : Front: L C R, Side: L R, LFE
Частота : 48,0 КГц
Частота кадров : 31,250 кадров/сек (1536 spf)
Битовая глубина : 16 бит
Метод сжатия : С потерями
Размер потока : 257 Мбайт (15%)
Заголовок : Original
Язык : English
Default : Нет
Forced : Нет

Текст
Идентификатор : 4
Формат : UTF-8
Идентификатор кодека : S_TEXT/UTF8
Идентификатор кодека/Информация : UTF-8 Plain Text
Язык : English
Default : Нет
Forced : Нет

Меню
00:00:00.000 : en:1
00:09:27.000 : en:2
00:19:44.000 : en:3
00:28:20.000 : en:4
00:36:35.000 : en:5
00:47:52.000 : en:6
00:58:57.000 : en:7
01:06:56.000 : en:8
01:16:29.000 : en:9
01:27:54.000 : en:10


Релиз от: Rip by:


_________________
Проголосуй за трекер Открытый торрент трекер - RUS-MEDIA.ORG

Проголосуй Открытый торрент трекер - RUS-MEDIA.ORG


Вернуться к началу
 Профиль Отправить личное сообщение  
 
   Похожие торренты   Автор   Торрент   Размер 
В этой теме нет новых непрочитанных сообщений. 24 часа на жизнь / 24 Hours to Live [боевик, триллер, фэнтези, 2017] WEBDLRip, Dub [iTunes]

salma3

17416 | 1444

1.46 ГБ

В этой теме нет новых непрочитанных сообщений. 24 часа на жизнь / 24 Hours to Live [Боевик, триллер, фэнтези, 2017] BDRip, Dub [iTunes]

salma3

0 | 0

1.42 ГБ

В этой теме нет новых непрочитанных сообщений. 24 часа на жизнь / 24 Hours to Live [Боевик, триллер, фэнтези, 2017] HDRip, Dub [iTunes]

salma3

130 | 8

745.42 МБ

В этой теме нет новых непрочитанных сообщений. 24 часа на жизнь / 24 Hours to Live [Боевик, триллер, фэнтези, 2017] HDRip, Dub [iTunes]

salma3

531 | 43

1.46 ГБ

В этой теме нет новых непрочитанных сообщений. 24 часа на жизнь / 24 Hours to Live [Боевик, триллер, фэнтези, 2017] BDRip 1080p, Dub [iTunes]

salma3

0 | 0

8.68 ГБ

В этой теме нет новых непрочитанных сообщений. 24 часа на жизнь / 24 Hours to Live [Боевик, триллер, фэнтези, 2017] WEB-DLRip 720p, Mvo

salma3

0 | 0

2.57 ГБ

В этой теме нет новых непрочитанных сообщений. 24 часа: Наследие / 24: Legacy [01x01-03 из 12] (боевик, триллер, драма, кримин, 2017) WEB-DLRip 1080p |Jaskier,Fox

marya111

36 | 51

11.2 ГБ


Начать новую тему Ответить на тему  [ 1 сообщение ] 




Для Мосгорсуда, Роскомнадзора и рекламодателей:: mosgorsud-torrent[собачка]yandex.ru
cron