Торрент файл
скачать торрент магнет ссылка Добавлен: 22 ноя 2017, 18:04
Размер: 1.38 ГБ
Сидеров: 477
Личеров: 55
Статус: (salma3)
Автор

СообщениеДобавлено: 22 ноя 2017, 18:04 

Не в сети
Супермодератор
Аватара пользователя
Дата регистрации:
15 фев 2012, 16:44
Возраст: 28
Спасибо: 7165 / 2147
Сообщения: 62094
Год выхода: 2017
Жанр: Триллер, криминал, детектив
Режиссер: Джонни Мартин

В ролях: Карл Урбан, Аль Пачино, Бриттани Сноу, Сара Шахи, Джо Андерсон, Жермен Риверс, Майкл Пападжон, Одесса Рэй, Жуль Хевн и другие

О фильме:
Журналиста Кристи Дэвис пишет статью о работе полиции, сотрудничая с детективом Руни из отдела убийств. И в первый же день они оказываются на месте преступления — девушка повешена, а на груди у нее вырезана буква.



Страна: США, Patriot Pictures, Cheyenne Enterprises
Продолжительность: 01:39:01
Перевод: Любительский (двухголосый закадровый)[RecentFilms]

Файл
Кодек: XviD
Качество: WEBRip
Видео: 720x304 , 23,976 fps, ~1800 Kbps, 0.34 bit/pixel
Аудио rus: AC3, 48 kHz, 2 ch, 192 Kbps

Реклама: присутствует

Семпл

General
Complete name : F:FilmsHangman.2017.WEBRip.RecentFilmsHangman.2017.WEBRip.RecentFilms.avi
Format : AVI
Format/Info : Audio Video Interleave
Format profile : OpenDML
File size : 1.38 GiB
Duration : 1h 38mn
Overall bit rate : 1 999 Kbps
Writing application : Lavf57.71.100

Video
ID : 0
Format : MPEG-4 Visual
Format profile : Advanced Simple@L5
Format settings, BVOP : 1
Format settings, QPel : No
Format settings, GMC : No warppoints
Format settings, Matrix : Default (H.263)
Codec ID : XVID
Codec ID/Hint : XviD
Duration : 1h 38mn
Bit rate : 1 795 Kbps
Width : 720 pixels
Height : 304 pixels
Display aspect ratio : 2.40:1
Frame rate : 23.976 (24000/1001) fps
Color space : YUV
Chroma subsampling : 4:2:0
Bit depth : 8 bits
Scan type : Progressive
Compression mode : Lossy
Bits/(Pixel*Frame) : 0.342
Stream size : 1.24 GiB (90%)
Writing library : XviD 67

Audio
ID : 1
Format : AC-3
Format/Info : Audio Coding 3
Mode extension : CM (complete main)
Format settings, Endianness : Big
Codec ID : 2000
Duration : 1h 38mn
Bit rate mode : Constant
Bit rate : 192 Kbps
Channel(s) : 2 channels
Channel positions : Front: L R
Sampling rate : 48.0 KHz
Frame rate : 31.250 fps (1536 spf)
Bit depth : 16 bits
Compression mode : Lossy
Stream size : 136 MiB (10%)
Alignment : Aligned on interleaves
Interleave, duration : 32 ms (0.77 video frame)



Релиз от: RecentFilms


_________________
Проголосуй за трекер Открытый торрент трекер - RUS-MEDIA.ORG

Проголосуй Открытый торрент трекер - RUS-MEDIA.ORG


Вернуться к началу
 Профиль Отправить личное сообщение  
 
   Похожие торренты   Автор   Торрент   Размер 
В этой теме нет новых непрочитанных сообщений. Виселица / Hangman [Триллер, Криминал, Детектив, 2017] WEB-DLRip, Mvo

salma3

666 | 68

1.36 ГБ

В этой теме нет новых непрочитанных сообщений. Виселица / Hangman [Триллер, криминал, детектив, 2017] WEB-DL 720p, Avo

salma3

441 | 9

3.31 ГБ

В этой теме нет новых непрочитанных сообщений. Виселица / Hangman [Триллер, Криминал, Детектив, 2017] WEB-DL 720p, Mvo

salma3

229 | 31

2.82 ГБ

В этой теме нет новых непрочитанных сообщений. Детектив / Thupparivaalan [Боевик, триллер, криминал, детектив, 2017] WEBRip 1080p, Dvo

salma3

35 | 45

6.31 ГБ

В этой теме нет новых непрочитанных сообщений. Детектив / Thupparivaalan [Боевик, триллер, криминал, детектив, 2017] WEBRip, Dvo

salma3

116 | 38

1.4 ГБ

В этой теме нет новых непрочитанных сообщений. Актриса [01-08 из 08] [Детектив, криминал, триллер, 2017] WEBRip

salma3

151 | 44

3.37 ГБ

В этой теме нет новых непрочитанных сообщений. Актриса [01-08 из 08] [Детектив, криминал, триллер, 2017] WEBRip 1080p

salma3

358 | 229

15.5 ГБ


Начать новую тему Ответить на тему  [ 1 сообщение ] 




Для Мосгорсуда, Роскомнадзора и рекламодателей:: mosgorsud-torrent[собачка]yandex.ru
cron