Торрент файл
скачать торрент магнет ссылка Добавлен: 22 ноя 2017, 12:25
Размер: 745.09 МБ
Сидеров: 35
Личеров: 9
Статус: (salma3)
Автор

СообщениеДобавлено: 22 ноя 2017, 12:25 

В сети
Супермодератор
Аватара пользователя
Дата регистрации:
15 фев 2012, 16:44
Возраст: 29
Спасибо: 7377 / 2147
Сообщения: 75817
Год выхода: 1993
Жанр: Фантастика, боевик
Режиссер: Т.Дж. Скотт

В ролях: Боло Йенг, Джалал Мерхи, Билли Блэнкс, Бобби Филлипс, Маттиас Хьюз, Келли Галлант, Гарри Мок, Рамсей Смит, Грегори Филпот

О фильме :
После экологической катастрофы поверхность нашей планеты стала практически непригодна для жизни и человечество было вынуждено спуститься под землю. Джейсон Сторм — полицейский, который вместе со своей напарницей Зои, занимается патрулированием выходов из подземного обустроенного мира. Во время очередного обхода доверенной им территории Зои погибает, после чего ее превращают в неуязвимого киборга-убийцу. Через некоторое время Джейсону становится известно, что шеф полиции, желающий захватить власть во всем мире, запрограммировал его бывшую напарницу взорвать атомную станцию, что приведет к уничтожению всего населения Северной Америки. Чтобы помешать коварным планам своего босса, Сторм объединяет усилия с Сумаем — самым грозным и безжалостным боевиком одной из преступных группировок...



Страна: Канада, США
Продолжительность: 01:34:48
Перевод: Профессиональный (двухголосый, закадровый) | Студия "Ракурс"

Файл
Формат: MKV
Качество: BDRip-AVC
Видео: MPEG-4 AVC, 752x424, ~ 1022 Кбит/с
Аудио: AAC-LC, 2 ch, ~ 76 Кбит/с

Общее
Уникальный идентификатор : 198930725811383296906074764611443210571 (0x95A8AA0709966DC9977B842E82BFB94B)
Полное имя : D:MOVIESTC 2000.1993.ExKinoRay.mkv
Формат : Matroska
Версия формата : Version 4 / Version 2
Размер файла : 745 Мбайт
Продолжительность : 1 ч. 34 м.
Общий поток : 1099 Кбит/сек
Дата кодирования : UTC 2017-11-22 05:52:37
Программа кодирования : mkvmerge v15.0.0 ('Duel with the Devil') 64-bit
Библиотека кодирования : libebml v1.3.5 + libmatroska v1.4.5

Видео
Идентификатор : 1
Формат : AVC
Формат/Информация : Advanced Video Codec
Профиль формата : High@L4.1
Параметр CABAC формата : Да
Параметр RefFrames формата : 10 кадров
Идентификатор кодека : V_MPEG4/ISO/AVC
Продолжительность : 1 ч. 34 м.
Битрейт : 1022 Кбит/сек
Ширина : 752 пикселя
Высота : 424 пикселя
Соотношение сторон : 16:9
Режим частоты кадров : Постоянный
Частота кадров : 23,976 (24000/1001) кадра/сек
Цветовое пространство : YUV
Субдискретизация насыщенности : 4:2:0
Битовая глубина : 8 бит
Тип развёртки : Прогрессивная
Бит/(Пиксели*Кадры) : 0.134
Размер потока : 692 Мбайт (93%)
Библиотека кодирования : x264 core 152 r2851kMod ba24899
Настройки программы : cabac=1 / ref=10 / deblock=1:-2:-2 / analyse=0x3:0x133 / me=umh / subme=11 / psy=1 / fade_compensate=0.00 / psy_rd=1.00:0.10 / mixed_ref=1 / me_range=32 / chroma_me=1 / trellis=2 / 8x8dct=1 / cqm=0 / deadzone=21,11 / fast_pskip=0 / chroma_qp_offset=-3 / threads=6 / lookahead_threads=1 / sliced_threads=0 / nr=0 / decimate=0 / interlaced=0 / bluray_compat=0 / constrained_intra=0 / bframes=10 / b_pyramid=2 / b_adapt=2 / b_bias=0 / direct=3 / weightb=1 / open_gop=0 / weightp=2 / keyint=240 / keyint_min=23 / scenecut=40 / intra_refresh=0 / rc_lookahead=40 / rc=2pass / mbtree=1 / bitrate=1022 / ratetol=1.0 / qcomp=0.60 / qpmin=0 / qpmax=69 / qpstep=4 / cplxblur=20.0 / qblur=0.5 / vbv_maxrate=50000 / vbv_bufsize=62500 / nal_hrd=none / filler=0 / ip_ratio=1.40 / aq=3:1.00
Default : Да
Forced : Нет

Аудио
Идентификатор : 2
Формат : AAC
Формат/Информация : Advanced Audio Codec
Профиль формата : LC
Идентификатор кодека : A_AAC
Продолжительность : 1 ч. 34 м.
Битрейт : 76,0 Кбит/сек
Каналы : 2 канала
Расположение каналов : Front: L R
Частота : 48,0 КГц
Частота кадров : 46,875 кадров/сек (1024 SPF)
Метод сжатия : С потерями
Задержка видео : 9 мс.
Размер потока : 51,5 Мбайт (7%)
Язык : Russian
Default : Да
Forced : Нет

Меню
00:00:00.000 : en:Chapter 01
00:10:01.559 : en:Chapter 02
00:17:08.069 : en:Chapter 03
00:27:04.665 : en:Chapter 04
00:36:13.004 : en:Chapter 05
00:45:53.583 : en:Chapter 06
00:54:57.419 : en:Chapter 07
01:04:02.088 : en:Chapter 08
01:11:48.470 : en:Chapter 09
01:20:08.595 : en:Chapter 10
01:23:53.487 : en:Chapter 11
01:30:33.928 : en:Chapter 12




Релиз от:


_________________
Проголосуй за трекер Открытый торрент трекер - RUS-MEDIA.ORG

Проголосуй Открытый торрент трекер - RUS-MEDIA.ORG


Вернуться к началу
 Профиль Отправить личное сообщение  
 
   Похожие торренты   Автор   Торрент   Размер 
В этой теме нет новых непрочитанных сообщений. Полицейский 2000 года / TC 2000 [Боевик, Фантастика, 1993] BDRip-AVC, Dvo+2Avo

salma3

35 | 9

2.18 ГБ

В этой теме нет новых непрочитанных сообщений. Полицейский 2000 года / TC 2000 [Боевик, боевые искусства, фантастика, 1993] BDRip 1080p, Dvo

salma3

22 | 8

7 ГБ

В этой теме нет новых непрочитанных сообщений. Полицейский 2000 года / TC 2000 [Фантастика, боевик, 1993] BDRemux 1080p, Dvo

salma3

27 | 7

14.35 ГБ

В этой теме нет новых непрочитанных сообщений. Смертельные гонки 2000 года / Death Race 2000 [фантастика, боевик, комедия, спорт, 1975] BDRip-AVC, Avo

salma3

28 | 11

2.1 ГБ

В этой теме нет новых непрочитанных сообщений. Уравнитель 2000 / Equalizer 2000 [фантастика, боевик, приключения, 1987] BDRip 1080p, Avo

salma3

136 | 46

7.79 ГБ

В этой теме нет новых непрочитанных сообщений. Уравнитель 2000 / Equalizer 2000 [фантастика, боевик, приключения, 1987] HDRip, Avo

salma3

110 | 14

1.46 ГБ

В этой теме нет новых непрочитанных сообщений. Дракула 2000 / Dracula 2000 [Ужасы, мистика, 2000] BDRip-AVC, Dub

salma3

112 | 26

745.63 МБ


Начать новую тему Ответить на тему  [ 1 сообщение ] 




Для Мосгорсуда, Роскомнадзора и рекламодателей:: mosgorsud-torrent[собачка]yandex.ru
cron