Торрент файл
скачать торрент магнет ссылка Добавлен: 21 ноя 2017, 22:47
Размер: 1.46 ГБ
Сидеров: 16
Личеров: 1
Статус: (salma3)
Автор

СообщениеДобавлено: 21 ноя 2017, 22:47 

Не в сети
Супермодератор
Аватара пользователя
Дата регистрации:
15 фев 2012, 16:44
Возраст: 28
Спасибо: 7290 / 2147
Сообщения: 70815
Год выхода: 1995
Жанр: Фантастика, приключения
Режиссёр: Том Холланд / Tom Holland

В ролях: Кейт Маберли, Патриция Уэттиг, Дин Стокуэлл, Дэвид Морс, Марк Линдсэй Чэпман, Фрэнки, Фэйзон, Бакстер Харрис, Кимбер Риддл, Кристофер Колле, Бронсон Пинчо

О фильме: Пассажиры самолета, летящего из Лос-Анджелеса в Бостон, попадают в «дыру во времени» и оказываются в ином мире, переживая невероятные приключения. Удастся ли им вернуться назад???



Страна: США
Продолжительность: 03:00:24
Перевод: Профессиональный (многоголосый, закадровый)

Файл
Формат: avi
Качество: DVDRip (DVD9)
Видео: XviD, 640х480, 25fps, 1020kbps
Аудио: MPEG Layer 3, 2ch, 48000Hz, 128kbps

Общее
Полное имя : Langolery.1995.P.DVDRip.1400.CurHaJI.avi
Формат : AVI
Формат/Информация : Audio Video Interleave
Размер файла : 1,46 Гбайт
Продолжительность : 3 ч. 0 м.
Общий поток : 1157 Кбит/сек
Название фильма : Langolery.1995.P.DVDRip.1400.CurHaJI
Программа кодирования : VirtualDubMod 1.5.10.3 | http://www.virtualdub-fr.org || (build 2550/release)
Библиотека кодирования : VirtualDub build 35491/release

Видео
Идентификатор : 0
Формат : MPEG-4 Visual
Профиль формата : Advanced Simple@L5
Параметр BVOP формата : 1
Параметр QPel формата : Нет
Параметр GMC формата : Без точки перехода
Параметр матрицы формата : Выборочная
Идентификатор кодека : XVID
Идентификатор кодека/Подсказка : XviD
Продолжительность : 3 ч. 0 м.
Битрейт : 1020 Кбит/сек
Ширина : 640 пикселей
Высота : 480 пикселей
Соотношение сторон : 4:3
Частота кадров : 25,000 кадров/сек
Цветовое пространство : YUV
Субдискретизация насыщенности : 4:2:0
Битовая глубина : 8 бит
Тип развёртки : Прогрессивная
Метод сжатия : С потерями
Бит/(Пиксели*Кадры) : 0.133
Размер потока : 1,29 Гбайт (88%)
Библиотека кодирования : XviD 73

Аудио
Идентификатор : 1
Формат : MPEG Audio
Версия формата : Version 1
Профиль формата : Layer 3
Идентификатор кодека : 55
Идентификатор кодека/Подсказка : MP3
Продолжительность : 3 ч. 0 м.
Вид битрейта : Постоянный
Битрейт : 128 Кбит/сек
Каналы : 2 канала
Частота : 48,0 КГц
Метод сжатия : С потерями
Размер потока : 165 Мбайт (11%)
Выравнивание : Соединение по промежуткам
Продолжительность промежутка : 40 мс. (1,00 видеокадр)
Время предзагрузки промежутка : 504 мс.
Библиотека кодирования : LAME3.99r
Настройки программы : -m s -V 4 -q 2 -lowpass 17 -b 128



Релиз от:


_________________
Проголосуй за трекер Открытый торрент трекер - RUS-MEDIA.ORG

Проголосуй Открытый торрент трекер - RUS-MEDIA.ORG


Вернуться к началу
 Профиль Отправить личное сообщение  
 
   Похожие торренты   Автор   Торрент   Размер 
В этой теме нет новых непрочитанных сообщений. Водный мир / Waterworld [фантастика, боевик, приключения, 1995] HDRip, Dub

salma3

159 | 32

1.47 ГБ

В этой теме нет новых непрочитанных сообщений. Город потерянных детей / La cité des enfants perdus [фантастика, фэнтези, драма, приключения, 1995] BDRip 1080p, Mvo+Avo

salma3

67 | 13

11.78 ГБ

В этой теме нет новых непрочитанных сообщений. Смертельная битва. Дилогия / Mortal Kombat. Dilogy [фантастика, фэнтези, боевик, триллер, приключения, 1995, 1997] BDRip-AVC, Mvo

salma3

85 | 16

2.92 ГБ

В этой теме нет новых непрочитанных сообщений. Киберджек / Cyberjack [Фантастика, боевик, 1995] DVDRip, Dvo

salma3

8 | 4

1.46 ГБ

В этой теме нет новых непрочитанных сообщений. Автоматик / Automatic [фантастика, боевик, 1995] DVDRip-AVC, Avo

salma3

48 | 13

1.46 ГБ

В этой теме нет новых непрочитанных сообщений. Киборг-полицейский 3 / Cyborg Cop III [Фантастика, боевик, триллер, 1995] DVDRip-AVC, Avo

salma3

0 | 0

745.98 МБ

В этой теме нет новых непрочитанных сообщений. Лунный полицейский / Lunarcop [фантастика, боевик, драма, 1995] DVDRip, Avo

salma3

29 | 6

744.71 МБ


Начать новую тему Ответить на тему  [ 1 сообщение ] 




Для Мосгорсуда, Роскомнадзора и рекламодателей:: mosgorsud-torrent[собачка]yandex.ru
cron