Торрент файл
скачать торрент магнет ссылка Добавлен: 21 ноя 2017, 12:01
Размер: 2.17 ГБ
Сидеров: 16
Личеров: 1
Статус: (salma3)
Автор

СообщениеДобавлено: 21 ноя 2017, 12:01 

Не в сети
Супермодератор
Аватара пользователя
Дата регистрации:
15 фев 2012, 16:44
Возраст: 28
Спасибо: 7061 / 2147
Сообщения: 59110
Год выпуска: 2010
Жанр: комедия
Режиссер: Тодд Филлипс

В ролях: Роберт Дауни мл., Зак Галифианакис, Мишель Монахэн, Джейми Фокс, Джульетт Льюис, Дэнни МакБрайд, Мэтт Уолш, Броди Стивенс, Джейкоб Ульрих

Описание:
Питер готовится стать отцом и находится на грани нервного срыва. И его нервам не идет на пользу тот факт, что ему предстоит предпринять целое путешествие, да еще и в компании честолюбивого актера, чтобы успеть добраться домой к рождению собственного ребенка.



Страна: США
Продолжительность: 01:35:15
Перевод: Профессиональный (полное дублирование)

Формат: BDRip-AVC
Видео: 1152x480 (2.40:1), 23.976 fps, AVC MPEG-4 (H.264), ~2486 kbps, 0.188 bit/pixel
Аудио1: Русский: 48 kHz, AC3 Dolby Digital, 6 ch, ~384 kbps
Аудио2: Английский: 48 kHz, AC3 Dolby Digital, 6 ch, ~384 kbps
Субтитры: русские, английские

Format : Matroska
File size : 2.17 GiB
Duration : 1h 35mn
Overall bit rate : 3 254 Kbps
Encoded date : UTC 2011-03-02 04:26:14
Writing application : mkvmerge v4.1.1 ('Bouncin' Back') сборка от Jul 3 2010 22:54:08
Writing library : libebml v1.0.0 + libmatroska v1.0.0
Video
ID : 1
Format : AVC
Format/Info : Advanced Video Codec
Format profile :
Format settings, CABAC : Yes
Format settings, ReFrames : 11 frames
Muxing mode : Container profile=Unknown@4.1
Codec ID : V_MPEG4/ISO/AVC
Duration : 1h 35mn
Bit rate : 2 486 Kbps
Width : 1 152 pixels
Height : 480 pixels
Display aspect ratio : 2.40:1
Frame rate : 23.976 fps
Color space : YUV
Chroma subsampling : 4:2:0
Bit depth : 8 bits
Scan type : Progressive
Bits/(Pixel*Frame) : 0.188
Stream size : 1.61 GiB (74%)
Writing library : x264 core 112 r1834 a51816a
Encoding settings : cabac=1 / ref=11 / deblock=1:-2:-1 / analyse=0x3:0x113 / me=umh / subme=9 / psy=1 / psy_rd=1.00:0.10 / mixed_ref=1 / me_range=32 / chroma_me=1 / trellis=2 / 8x8dct=1 / cqm=0 / deadzone=21,11 / fast_pskip=1 / chroma_qp_offset=-3 / threads=9 / sliced_threads=0 / nr=0 / decimate=1 / interlaced=0 / constrained_intra=0 / bframes=10 / b_pyramid=2 / b_adapt=2 / b_bias=0 / direct=3 / weightb=1 / open_gop=0 / weightp=0 / keyint=250 / keyint_min=23 / scenecut=40 / intra_refresh=0 / rc_lookahead=80 / rc=2pass / mbtree=1 / bitrate=2486 / ratetol=1.0 / qcomp=0.60 / qpmin=0 / qpmax=51 / qpstep=4 / cplxblur=20.0 / qblur=0.5 / ip_ratio=1.40 / aq=2:0.90
Audio #1
ID : 2
Format : AC-3
Format/Info : Audio Coding 3
Mode extension : CM (complete main)
Codec ID : A_AC3
Duration : 1h 35mn
Bit rate mode : Constant
Bit rate : 384 Kbps
Channel(s) : 6 channels
Channel positions : Front: L C R, Side: L R, LFE
Sampling rate : 48.0 KHz
Stream size : 262 MiB (12%)
Language : Russian
Audio #2
ID : 3
Format : AC-3
Format/Info : Audio Coding 3
Mode extension : CM (complete main)
Codec ID : A_AC3
Duration : 1h 35mn
Bit rate mode : Constant
Bit rate : 384 Kbps
Channel(s) : 6 channels
Channel positions : Front: L C R, Side: L R, LFE
Sampling rate : 48.0 KHz
Stream size : 262 MiB (12%)
Text #1
ID : 4
Format : UTF-8
Codec ID : S_TEXT/UTF8
Codec ID/Info : UTF-8 Plain Text
Title : Forced
Language : Russian
Text #2
ID : 5
Format : UTF-8
Codec ID : S_TEXT/UTF8
Codec ID/Info : UTF-8 Plain Text
Language : Russian
Text #3
ID : 6
Format : UTF-8
Codec ID : S_TEXT/UTF8
Codec ID/Info : UTF-8 Plain Text





_________________
Проголосуй за трекер Открытый торрент трекер - RUS-MEDIA.ORG

Проголосуй Открытый торрент трекер - RUS-MEDIA.ORG


Вернуться к началу
 Профиль Отправить личное сообщение  
 
   Похожие торренты   Автор   Торрент   Размер 
В этой теме нет новых непрочитанных сообщений. Парни со стволами / War Dogs (Тодд Филлипс) [2016, драма, комедия, криминал, военный, BDRip 720p | iTunes] Dub

marya111

716 | 48

4.69 ГБ

В этой теме нет новых непрочитанных сообщений. Таинственное свидание / Mystery Date [триллер, мелодрама, комедия, 1991] BDRip 720p, Dvo+Avo+Sub

salma3

54 | 96

4.58 ГБ

В этой теме нет новых непрочитанных сообщений. Не/смотря ни на что / Mein Blind Date mit dem Leben [комедия, драма, 2017] BDRip 1080p, Mvo [iTunes]

salma3

1142 | 164

5.03 ГБ

В этой теме нет новых непрочитанных сообщений. Не/смотря ни на что / Mein Blind Date mit dem Leben [комедия, драма, 2017] BDRip 720p, Mvo [iTunes]

salma3

1046 | 133

2.99 ГБ

В этой теме нет новых непрочитанных сообщений. Последние девушки / The Final Girls (Тодд Штраус-Шульсон) [2015, ужасы, комедия, BDRip-AVC | Лицензия] mvo

Dracon

686 | 43

1.46 ГБ

В этой теме нет новых непрочитанных сообщений. Последние девушки / The Final Girls (Тодд Штраус-Шульсон) [2015, ужасы, комедия, BDRip-AVC | Лицензия]

Dracon

148 | 7

2.18 ГБ

В этой теме нет новых непрочитанных сообщений. Последние девушки / The Final Girls (Тодд Штраус-Шульсон) [2015, ужасы, комедия, BDRip-AVC | Лицензия] mvo

Dracon

162 | 8

743.63 МБ


Начать новую тему Ответить на тему  [ 1 сообщение ] 




Для Мосгорсуда, Роскомнадзора и рекламодателей:: mosgorsud-torrent[собачка]yandex.ru
cron