Торрент файл
скачать торрент магнет ссылка Добавлен: 19 ноя 2017, 23:31
Размер: 1.41 ГБ
Сидеров: 209
Личеров: 120
Статус: (salma3)
Автор

СообщениеДобавлено: 19 ноя 2017, 23:31 

Не в сети
Аватара пользователя
Дата регистрации:
11 фев 2015, 12:36
Спасибо: 15 / 2
Сообщения: 12
Телохранитель киллера / The Hitman's Bodyguard

Год выпуска: 2017
Страна: США, Китай, Болгария, Нидерланды
Жанр: боевик, комедия
Продолжительность: 01:58:23
Перевод: Профессиональный (полное дублирование)
Субтитры: русские

Режиссер: Патрик Хьюз

В ролях: Райан Рейнольдс, Сэмюэл Л. Джексон, Элоди Юнг, Сальма Хайек, Гэри Олдман, Жоаки де Алмейда, Юрий Колокольников, Тине Жустра, Сэм Хэзелдайн, Ричард Э. Грант, Род Халлетт, Нуртье Херлар, Михаил Горевой, Кирсти Митчелл, Крис Брейзиер, Алан МакКенна, Жозефин де ла Буме, Ори Феффер, Александр Меркюри, Майкл Джинкс, Джастин Пирсон, Оуэн Дэвис

Описание: Он — телохранитель мирового уровня. Его новая работа — охранять киллера, которого все мечтают убить. Он и сам с удовольствием прикончил бы этого гада. Но работа есть работа: смертельные враги в прошлом, они вынуждены объединиться в настоящем, чтобы выжить. Однако их методы настолько различны, а принципы противоположны, что вопрос выживания — под большим вопросом.



Качество: BDRip-AVC
Формат: MKV
Видео кодек: H264
Аудио кодек: АС3
Видео: 900x376 (2.40:1) 23,976 fps, AVC (x264) High@L4.1, 1 319 Кбит/сек, 0.163 bit/pixel
Аудио: 48 kHz, AC3 Dolby Digital, 3/2 (L,C,R,l,r) + LFE ch, ~384.00 kbps avg



Общее
Уникальный идентификатор : 222620600817063420854998799534929236534 (0xA77B2B0AE6FD92E18A96C0CD46605236)
Полное имя : E:\Закачка-2\Telohranitel.Killera.2017.RUS.BDRip.x264.-HELLYWOOD.mkv
Формат : Matroska
Версия формата : Version 4 / Version 2
Размер файла : 1,41 Гбайт
Продолжительность : 1 ч. 58 м.
Общий поток : 1703 Кбит/сек
Название фильма : The Hitman's Bodyguard (2017)
Дата кодирования : UTC 2017-11-19 16:19:49
Программа кодирования : mkvmerge v5.9.0 ('On The Loose') built on Dec 15 2012 16:39:58
Библиотека кодирования : libebml v1.3.0 + libmatroska v1.4.0

Видео
Идентификатор : 1
Формат : AVC
Формат/Информация : Advanced Video Codec
Профиль формата : High@L4.1
Параметр CABAC формата : Да
Параметр RefFrames формата : 12 кадров
Идентификатор кодека : V_MPEG4/ISO/AVC
Продолжительность : 1 ч. 58 м.
Битрейт : 1319 Кбит/сек
Ширина : 900 пикселей
Высота : 376 пикселей
Соотношение сторон : 2,40:1
Режим частоты кадров : Постоянный
Частота кадров : 23,976 (24000/1001) кадра/сек
Цветовое пространство : YUV
Субдискретизация насыщенности : 4:2:0
Битовая глубина : 8 бит
Тип развёртки : Прогрессивная
Бит/(Пиксели*Кадры) : 0.163
Размер потока : 1,06 Гбайт (75%)
Заголовок : potroks
Библиотека кодирования : x264 core 152 r2851M ba24899
Настройки программы : cabac=1 / ref=12 / deblock=1:-1:-1 / analyse=0x3:0x132 / me=umh / subme=11 / psy=1 / psy_rd=1.00:0.10 / mixed_ref=1 / me_range=48 / chroma_me=1 / trellis=2 / 8x8dct=1 / cqm=0 / deadzone=21,11 / fast_pskip=0 / chroma_qp_offset=-3 / threads=9 / lookahead_threads=2 / sliced_threads=0 / nr=0 / decimate=0 / interlaced=0 / bluray_compat=0 / constrained_intra=0 / bframes=13 / b_pyramid=2 / b_adapt=2 / b_bias=0 / direct=3 / weightb=1 / open_gop=0 / weightp=2 / keyint=240 / keyint_min=23 / scenecut=40 / intra_refresh=0 / rc_lookahead=0 / rc=2pass / mbtree=0 / bitrate=1319 / ratetol=1.0 / qcomp=0.70 / qpmin=0 / qpmax=69 / qpstep=4 / cplxblur=20.0 / qblur=0.5 / vbv_maxrate=50000 / vbv_bufsize=35714 / nal_hrd=none / filler=0 / ip_ratio=1.40 / pb_ratio=1.30 / aq=1:0.80
Язык : English
Default : Да
Forced : Нет

Аудио
Идентификатор : 2
Формат : AC-3
Формат/Информация : Audio Coding 3
Параметр Endianness формата : Big
Идентификатор кодека : A_AC3
Продолжительность : 1 ч. 58 м.
Вид битрейта : Постоянный
Битрейт : 384 Кбит/сек
Каналы : 6 каналов
Расположение каналов : Front: L C R, Side: L R, LFE
Частота : 48,0 КГц
Частота кадров : 31,250 кадров/сек (1536 SPF)
Битовая глубина : 16 бит
Метод сжатия : С потерями
Размер потока : 325 Мбайт (23%)
Заголовок : Dub | DD 5.1 @ 384 kbps - iTunes
Язык : Russian
ServiceKind/String : Complete Main
Default : Да
Forced : Нет

Текст
Идентификатор : 3
Формат : UTF-8
Идентификатор кодека : S_TEXT/UTF8
Идентификатор кодека/Информация : UTF-8 Plain Text
Язык : Russian
Default : Нет
Forced : Нет

Меню
00:00:00.000 : :00:00:00.000
00:07:22.942 : :00:07:22.942
00:13:53.875 : :00:13:53.875
00:20:23.305 : :00:20:23.305
00:27:20.138 : :00:27:20.138
00:32:53.513 : :00:32:53.513
00:38:25.428 : :00:38:25.428
00:46:52.977 : :00:46:52.977
00:56:39.354 : :00:56:39.354
01:00:23.370 : :01:00:23.370
01:09:11.397 : :01:09:11.397
01:16:34.381 : :01:16:34.381
01:21:11.241 : :01:21:11.241
01:27:45.093 : :01:27:45.093
01:35:06.743 : :01:35:06.743
01:40:37.740 : :01:40:37.740



Вернуться к началу
 Профиль Отправить личное сообщение  
 
   Похожие торренты   Автор   Торрент   Размер 
В этой теме нет новых непрочитанных сообщений. Телохранитель киллера / The Hitman's Bodyguard [Боевик, Комедия, 2017] BDRip-AVC, Dub [iTunes]

colian7

347 | 116

2.13 ГБ

В этой теме нет новых непрочитанных сообщений. Телохранитель киллера / The Hitman's Bodyguard [Боевик, Комедия, 2017] BDRip, Dub [iTunes]

colian7

1040 | 270

1.41 ГБ

В этой теме нет новых непрочитанных сообщений. Телохранитель киллера / The Hitman's Bodyguard [Боевик, Комедия, 2017] BDRip 1080p, Dub [iTunes]

colian7

16 | 106

7.52 ГБ

В этой теме нет новых непрочитанных сообщений. Телохранитель киллера / The Hitman's Bodyguard [боевик, комедия, 2017] BDRip, Avo [Гаврилов]

salma3

17 | 6

2.18 ГБ

В этой теме нет новых непрочитанных сообщений. Телохранитель киллера / The Hitman's Bodyguard [боевик, комедия, 2017] BDRip, Dub [Лицензия]

salma3

2039 | 331

1.46 ГБ

В этой теме нет новых непрочитанных сообщений. Телохранитель киллера / The Hitman's Bodyguard [боевик, комедия, 2017] BDRip 720p, Dub+Sub [Лицензия]

salma3

0 | 0

7.63 ГБ

В этой теме нет новых непрочитанных сообщений. Телохранитель киллера / The Hitman's Bodyguard [боевик, комедия, 2017] BDRip 1080p, Dub+Sub [Лицензия]

salma3

0 | 0

15.05 ГБ


Начать новую тему Ответить на тему  [ 1 сообщение ] 




Для Мосгорсуда, Роскомнадзора и рекламодателей:: mosgorsud-torrent[собачка]yandex.ru
cron