Торрент файл
скачать торрент магнет ссылка Добавлен: 17 ноя 2017, 22:29
Размер: 3.96 ГБ
Сидеров: 0
Личеров: 45
Статус: (salma3)
Автор

СообщениеДобавлено: 17 ноя 2017, 22:29 

Не в сети
Супермодератор
Аватара пользователя
Дата регистрации:
15 фев 2012, 16:44
Возраст: 28
Спасибо: 6642 / 2146
Сообщения: 45738
Год выхода: 1965
Жанр: боевик, триллер, криминал
Режиссер: Теренс Янг

В ролях: Шон Коннери, Клодин Оже, Адольфо Чели, Гай Доулман, Мартина Бесвик, Бернард Ли, Десмонд Ллевелин, Лоис Максвелл, Роланд Калвер, Эрл Кэмерон, Пол Стассино, Роуз Альба, Лучана Палуцци, Филип Лок, Рик Ван Наттер, Джордж Правда, Майкл Бреннан, Леонард Сакс, Эдвард Андердаун, Реджинальд Бекуит, Мицуко, Молли Питерс

О фильме:
Четвертый фильм о Джеймсе Бонде, агенте английской секретной службы. Террористы из организации «Спектр» захватывают бомбардировщик с двумя атомными бомбами на борту и угрожают взорвать их, если британское правительство не доставит им алмазов на 100 миллионов фунтов стерлингов. Как всегда Джеймс Бонд обезвреживает злодеев, успевая поплавать в бассейне, кишащем акулами, и соблазнить любовницу главного террориста.


Страна: Великобритания, США
Продолжительность: 02:10:23
Перевод: Дублированный, Многоголосый (Киномания, Карусель, Somewax, DVD-Магия, Лазер-Видео, Пятый канал), Двухголосый (НТВ)
Отдельно: Авторский (А.Гаврилов, Ю.Живов В.Сонькин, М.Иванов, Ю.Товбин)

Файл
Кодек: H.264
Качество: BDRip-AVC
Видео: MPEG-4 (AVC), 1024x436, 23.976 fps, ~1654 kbps, 0.15 bit/pixel
Звук:
AC3, 48.0 kHz, 2 ch, 192 Kbps | Дубляж
AC3, 48.0 kHz, 2 ch, 192 Kbps | Киномания
AC3, 48.0 kHz, 2 ch, 192 Kbps | Карусель
AC3, 48.0 kHz, 2 ch, 192 Kbps | Somewax
AC3, 48.0 kHz, 2 ch, 192 Kbps | DVD-Магия
AC3, 48.0 kHz, 2 ch, 192 Kbps | Лазер-Видео
AC3, 48.0 kHz, 2 ch, 192 Kbps | Пятый канал
AC3, 48.0 kHz, 1 ch, 192 Kbps | НТВ
AC3, 48.0 kHz, 2 ch, 192 Kbps | Ю.Живов (отдельно)
AC3, 48.0 kHz, 2 ch, 192 Kbps | А.Гаврилов (v.1) (отдельно)
AC3, 48.0 kHz, 2 ch, 192 Kbps | А.Гаврилов (v.2) (отдельно)
AC3, 48.0 kHz, 2 ch, 192 Kbps | В.Сонькин (отдельно)
AC3, 48.0 kHz, 2 ch, 192 Kbps | М.Иванов (отдельно)
AC3, 48.0 kHz, 2 ch, 192 Kbps | Ю.Товбин (отдельно)
Субтитры: нет

General
Unique ID : 249979646495843183395750447030556468319 (0xBC1054238B6CE1EFB881426FD5BCA45F)
Complete name : 1965 - Шаровая молния.mkv
Format : Matroska
Format version : Version 4 / Version 2
File size : 2.91 GiB
Duration : 2 h 10 min
Overall bit rate : 3 194 kb/s
Encoded date : UTC 2017-10-27 08:07:37
Writing application : mkvmerge v17.0.0 ('Be Ur Friend') 32-bit
Writing library : libebml v1.3.5 + libmatroska v1.4.8

Video
ID : 1
Format : AVC
Format/Info : Advanced Video Codec
Format profile : High@L3.1
Format settings, CABAC : Yes
Format settings, ReFrames : 4 frames
Codec ID : V_MPEG4/ISO/AVC
Duration : 2 h 10 min
Bit rate : 1 654 kb/s
Width : 1 024 pixels
Height : 436 pixels
Display aspect ratio : 2.35:1
Frame rate mode : Constant
Frame rate : 23.976 (24000/1001) FPS
Color space : YUV
Chroma subsampling : 4:2:0
Bit depth : 8 bits
Scan type : Progressive
Bits/(Pixel*Frame) : 0.155
Stream size : 1.51 GiB (52%)
Writing library : x264 core 148 r2744 b97ae06
Encoding settings : cabac=1 / ref=3 / deblock=1:0:0 / analyse=0x3:0x113 / me=umh / subme=7 / psy=1 / psy_rd=1.00:0.00 / mixed_ref=1 / me_range=16 / chroma_me=1 / trellis=1 / 8x8dct=1 / cqm=0 / deadzone=21,11 / fast_pskip=1 / chroma_qp_offset=-2 / threads=4 / lookahead_threads=1 / sliced_threads=0 / nr=0 / decimate=1 / interlaced=0 / bluray_compat=0 / constrained_intra=0 / bframes=3 / b_pyramid=2 / b_adapt=1 / b_bias=0 / direct=1 / weightb=1 / open_gop=0 / weightp=2 / keyint=240 / keyint_min=23 / scenecut=40 / intra_refresh=0 / rc_lookahead=40 / rc=2pass / mbtree=1 / bitrate=1654 / ratetol=1.0 / qcomp=0.60 / qpmin=0 / qpmax=69 / qpstep=4 / cplxblur=20.0 / qblur=0.5 / ip_ratio=1.40 / aq=1:1.00
Language : English
Default : Yes
Forced : No

Audio #1
ID : 2
Format : AC-3
Format/Info : Audio Coding 3
Format settings, Endianness : Big
Codec ID : A_AC3
Duration : 2 h 10 min
Bit rate mode : Constant
Bit rate : 192 kb/s
Channel(s) : 2 channels
Channel positions : Front: L R
Sampling rate : 48.0 kHz
Frame rate : 31.250 FPS (1536 spf)
Bit depth : 16 bits
Compression mode : Lossy
Stream size : 179 MiB (6%)
Title : Дубляж
Language : Russian
Service kind : Complete Main
Default : Yes
Forced : No

Audio #2
ID : 3
Format : AC-3
Format/Info : Audio Coding 3
Format settings, Endianness : Big
Codec ID : A_AC3
Duration : 2 h 10 min
Bit rate mode : Constant
Bit rate : 192 kb/s
Channel(s) : 2 channels
Channel positions : Front: L R
Sampling rate : 48.0 kHz
Frame rate : 31.250 FPS (1536 spf)
Bit depth : 16 bits
Compression mode : Lossy
Stream size : 179 MiB (6%)
Title : Многоголосый (Киномания)
Language : Russian
Service kind : Complete Main
Default : No
Forced : No

Audio #3
ID : 4
Format : AC-3
Format/Info : Audio Coding 3
Format settings, Endianness : Big
Codec ID : A_AC3
Duration : 2 h 10 min
Bit rate mode : Constant
Bit rate : 192 kb/s
Channel(s) : 2 channels
Channel positions : Front: L R
Sampling rate : 48.0 kHz
Frame rate : 31.250 FPS (1536 spf)
Bit depth : 16 bits
Compression mode : Lossy
Stream size : 179 MiB (6%)
Title : Многоголосый (Карусель)
Language : Russian
Service kind : Complete Main
Default : No
Forced : No

Audio #4
ID : 5
Format : AC-3
Format/Info : Audio Coding 3
Format settings, Endianness : Big
Codec ID : A_AC3
Duration : 2 h 10 min
Bit rate mode : Constant
Bit rate : 192 kb/s
Channel(s) : 2 channels
Channel positions : Front: L R
Sampling rate : 48.0 kHz
Frame rate : 31.250 FPS (1536 spf)
Bit depth : 16 bits
Compression mode : Lossy
Stream size : 179 MiB (6%)
Title : Многоголосый (Somewax)
Language : Russian
Service kind : Complete Main
Default : No
Forced : No

Audio #5
ID : 6
Format : AC-3
Format/Info : Audio Coding 3
Format settings, Endianness : Big
Codec ID : A_AC3
Duration : 2 h 10 min
Bit rate mode : Constant
Bit rate : 192 kb/s
Channel(s) : 2 channels
Channel positions : Front: L R
Sampling rate : 48.0 kHz
Frame rate : 31.250 FPS (1536 spf)
Bit depth : 16 bits
Compression mode : Lossy
Stream size : 179 MiB (6%)
Title : Многоголосый (DVD-Магия)
Language : Russian
Service kind : Complete Main
Default : No
Forced : No

Audio #6
ID : 7
Format : AC-3
Format/Info : Audio Coding 3
Format settings, Endianness : Big
Codec ID : A_AC3
Duration : 2 h 10 min
Bit rate mode : Constant
Bit rate : 192 kb/s
Channel(s) : 2 channels
Channel positions : Front: L R
Sampling rate : 48.0 kHz
Frame rate : 31.250 FPS (1536 spf)
Bit depth : 16 bits
Compression mode : Lossy
Stream size : 179 MiB (6%)
Title : Многоголосый (Лазер-Видео)
Language : Russian
Service kind : Complete Main
Default : No
Forced : No

Audio #7
ID : 8
Format : AC-3
Format/Info : Audio Coding 3
Format settings, Endianness : Big
Codec ID : A_AC3
Duration : 2 h 10 min
Bit rate mode : Constant
Bit rate : 192 kb/s
Channel(s) : 2 channels
Channel positions : Front: L R
Sampling rate : 48.0 kHz
Frame rate : 31.250 FPS (1536 spf)
Bit depth : 16 bits
Compression mode : Lossy
Stream size : 179 MiB (6%)
Title : Многоголосый (Пятый канал)
Language : Russian
Service kind : Complete Main
Default : No
Forced : No

Audio #8
ID : 9
Format : AC-3
Format/Info : Audio Coding 3
Format settings, Endianness : Big
Codec ID : A_AC3
Duration : 2 h 10 min
Bit rate mode : Constant
Bit rate : 192 kb/s
Channel(s) : 1 channel
Channel positions : Front: C
Sampling rate : 48.0 kHz
Frame rate : 31.250 FPS (1536 spf)
Bit depth : 16 bits
Compression mode : Lossy
Stream size : 179 MiB (6%)
Title : Двухголосый (НТВ)
Language : Russian
Service kind : Complete Main
Default : No
Forced : No


_________________
Проголосуй за трекер Открытый торрент трекер - RUS-MEDIA.ORG

Проголосуй Открытый торрент трекер - RUS-MEDIA.ORG



реклама партнёра


Вернуться к началу
 Профиль Отправить личное сообщение  
 
   Похожие торренты   Автор   Торрент   Размер 
В этой теме нет новых непрочитанных сообщений. Белая молния / White Lightning [боевик, драма, криминал, 1973] BDRip, Dvo [НТВ+]

salma3

69 | 12

1.45 ГБ

В этой теме нет новых непрочитанных сообщений. Молния / Zipper (Мора Стивенс) [2015, триллер, драма, BDRip] avo

Dracon

1650 | 99

1.47 ГБ

В этой теме нет новых непрочитанных сообщений. Молния / Zipper (Мора Стивенс) [2015, триллер, драма, BDRip 720p] avo

Dracon

276 | 11

4.61 ГБ

В этой теме нет новых непрочитанных сообщений. Жандарм в Нью-Йорке / Le gendarme a New York [комедия, криминал, 1965] BDRip, Mvo [РенТВ]

salma3

40 | 14

1.45 ГБ

В этой теме нет новых непрочитанных сообщений. На несколько долларов больше / For A Few Dollars More [Вестерн, боевик, 1965] BDRip 1080p, Mvo+Avo+Sub

salma3

47 | 9

10.21 ГБ

В этой теме нет новых непрочитанных сообщений. Операция «Ы» и другие приключения Шурика (Леонид Гайдай) [Эксцентрическая комедия, мелодрама, криминал, 1965] BDRip 1080p

Dracon

1 | 0

7.16 ГБ

В этой теме нет новых непрочитанных сообщений. Ликвидатор / The Liquidator [боевик, триллер, драма, 1965] HDTVRip 720p, Avo

salma3

25 | 2

3.16 ГБ


Начать новую тему Ответить на тему  [ 1 сообщение ] 




Для Мосгорсуда, Роскомнадзора и рекламодателей:: mosgorsud-torrent[собачка]yandex.ru