Торрент файл
скачать торрент магнет ссылка Добавлен: 16 ноя 2017, 21:55
Размер: 745.83 МБ
Сидеров: 17
Личеров: 2
Статус: (salma3)
Автор

СообщениеДобавлено: 16 ноя 2017, 21:55 

Не в сети
Супермодератор
Аватара пользователя
Дата регистрации:
15 фев 2012, 16:44
Возраст: 28
Спасибо: 7205 / 2147
Сообщения: 65575
Год выхода: 1994
Жанр: Боевик, триллер, драма
Режиссер: Филлип Нойс

В ролях: Харрисон Форд, Уиллем Дефо, Энн Арчер, Хоаким де Альмейда, Генри Черны, Харрис Юлин, Дональд Моффет, Мигель Сандовал, Бенджамин Брэтт, Рэймонд Крус

О фильме:
По одноимённому роману Тома Клэнси. Джек Райан на этот раз оказывается во главе отдела разведки ЦРУ, и вхож в Овальный кабинет Белого Дома. Он вынужден бороться против колумбийских наркодельцов, не ведая, что при попустительстве президента США его помощник по национальной безопасности и шеф ЦРУ проводят, с помощью наемников, боевые операции в Колумбии. Экранизация романа Тома Клэнси не оставит равнодушным любителей масштабных политических триллеров. Харрисон Форд как всегда уместен в роли стопроцентного американца, ходячего сосредоточения добродетелей, для которого даже президент США не фигура, если тот ведет нечестную игру. Герой Форда, крупный чин из ЦРУ, истово и изобретательно сражается как с кокаиновой мафией, так и с подгнившим вашингтонским истеблишментом, рискуя жизнью и карьерой ради одного — правды. Колумбийские эпизоды сняты кудесником кинокамеры Дональдом Макалпайном просто потрясающе.



Выпущено: США
Продолжительность: 02:21:15
Перевод: Профессиональный многоголосый (CEE)

Файл
Кодек: H.264
Качество: BDRip (AVC)
Видео: MPEG-4 AVC, 672 Кбит/с, 720x320
Звук: Русский (AАС, 2 ch, 64 Кбит/с)
Субтитры: Русские

Формат : Matroska
Версия формата : Version 4 / Version 2
Размер файла : 746 Мбайт
Продолжительность : 2 ч. 21 м.
Общий поток : 738 Кбит/сек
Название фильма : Clear.and.Present.Danger.1994.x264.BDRip.(AVC).ExKinoRay
Дата кодирования : UTC 2017-11-16 13:33:52
Программа кодирования : mkvmerge v17.0.0 ('Be Ur Friend') 64-bit
Библиотека кодирования : libebml v1.3.5 + libmatroska v1.4.8

Видео
Идентификатор : 1
Формат : AVC
Формат/Информация : Advanced Video Codec
Профиль формата : High@L4.1
Параметр CABAC формата : Да
Параметр ReFrames формата : 10 кадров
Идентификатор кодека : V_MPEG4/ISO/AVC
Продолжительность : 2 ч. 21 м.
Битрейт : 672 Кбит/сек
Ширина : 720 пикселей
Высота : 320 пикселей
Соотношение сторон : 2,25:1
Режим частоты кадров : Постоянный
Частота кадров : 23,976 (24000/1001) кадра/сек
Цветовое пространство : YUV
Субдискретизация насыщенности : 4:2:0
Битовая глубина : 8 бит
Тип развёртки : Прогрессивная
Бит/(Пиксели*Кадры) : 0.122
Размер потока : 679 Мбайт (91%)
Заголовок : ExKinoRay
Библиотека кодирования : x264 core 152 r2851 ba24899
Настройки программы : cabac=1 / ref=10 / deblock=1:-2:-2 / analyse=0x3:0x133 / me=umh / subme=11 / psy=1 / psy_rd=1.00:0.00 / mixed_ref=1 / me_range=32 / chroma_me=1 / trellis=2 / 8x8dct=1 / cqm=0 / deadzone=21,11 / fast_pskip=0 / chroma_qp_offset=-3 / threads=6 / lookahead_threads=1 / sliced_threads=0 / nr=0 / decimate=0 / interlaced=0 / bluray_compat=0 / constrained_intra=0 / bframes=10 / b_pyramid=2 / b_adapt=2 / b_bias=0 / direct=3 / weightb=1 / open_gop=0 / weightp=2 / keyint=240 / keyint_min=23 / scenecut=40 / intra_refresh=0 / rc_lookahead=40 / rc=2pass / mbtree=0 / bitrate=672 / ratetol=1.0 / qcomp=0.60 / qpmin=0 / qpmax=69 / qpstep=4 / cplxblur=20.0 / qblur=0.5 / vbv_maxrate=50000 / vbv_bufsize=62500 / nal_hrd=none / filler=0 / ip_ratio=1.40 / pb_ratio=1.30 / aq=2:1.00
Язык : English
Default : Да
Forced : Нет

Аудио
Идентификатор : 2
Формат : AAC
Формат/Информация : Advanced Audio Codec
Профиль формата : LC
Идентификатор кодека : A_AAC
Продолжительность : 2 ч. 21 м.
Битрейт : 64,0 Кбит/сек
Каналы : 2 канала
Расположение каналов : Front: L R
Частота : 48,0 КГц
Частота кадров : 46,875 кадров/сек (1024 spf)
Метод сжатия : С потерями
Задержка видео : 9 мс.
Размер потока : 64,6 Мбайт (9%)
Заголовок : (многоголосый закадровый, CEE
Язык : Russian
Default : Да
Forced : Нет

Текст
Идентификатор : 3
Формат : UTF-8
Идентификатор кодека : S_TEXT/UTF8
Идентификатор кодека/Информация : UTF-8 Plain Text
Продолжительность : 2 ч. 15 м.
Битрейт : 79 бит/сек
Count of elements : 1486
Размер потока : 78,7 Кбайт (0%)
Язык : Russian
Default : Нет
Forced : Нет



Релиз от:


_________________
Проголосуй за трекер Открытый торрент трекер - RUS-MEDIA.ORG

Проголосуй Открытый торрент трекер - RUS-MEDIA.ORG


Вернуться к началу
 Профиль Отправить личное сообщение  
 
   Похожие торренты   Автор   Торрент   Размер 
В этой теме нет новых непрочитанных сообщений. Прямая и явная угроза / Clear and Present Danger [боевик, триллер, драма, 1994] BDRip, Dvo

salma3

71 | 18

1.46 ГБ

В этой теме нет новых непрочитанных сообщений. Прямая и явная угроза / Clear and Present Danger [боевик, триллер, драма, 1994] BDRip 1080p, Mvo

salma3

0 | 0

7.76 ГБ

В этой теме нет новых непрочитанных сообщений. Прямая и явная угроза / Clear and Present Danger [боевик, триллер, драма, 1994] BDRip 720p, Mvo

salma3

0 | 1

12.95 ГБ

В этой теме нет новых непрочитанных сообщений. Прямая и явная угроза / Clear and Present Danger [Боевик, триллер, драма, криминал, 1994] BDRip-AVC, Mvo+Avo+Sub

salma3

15 | 2

4.32 ГБ

В этой теме нет новых непрочитанных сообщений. Явная ложь / Thumper [Триллер, драма, криминал, 2017] WEBRip, Dvo

salma3

441 | 143

1.36 ГБ

В этой теме нет новых непрочитанных сообщений. Чемпион / Pentathlon [боевик, триллер, драма, 1994] BDRip 1080p, Mvo

salma3

31 | 52

8.08 ГБ

В этой теме нет новых непрочитанных сообщений. У ковбоев так принято / The Cowboy Way [боевик, триллер, драма, 1994] BDRip-AVC, Dvo

salma3

0 | 1

3.65 ГБ


Начать новую тему Ответить на тему  [ 1 сообщение ] 




Для Мосгорсуда, Роскомнадзора и рекламодателей:: mosgorsud-torrent[собачка]yandex.ru
cron