Торрент файл
скачать торрент магнет ссылка Добавлен: 16 ноя 2017, 16:28
Размер: 746.93 МБ
Сидеров: 24
Личеров: 13
Статус: (salma3)
Автор

СообщениеДобавлено: 16 ноя 2017, 16:28 

В сети
Супермодератор
Аватара пользователя
Дата регистрации:
15 фев 2012, 16:44
Возраст: 28
Спасибо: 7285 / 2147
Сообщения: 70263
Год выхода: 2010
Жанр: ужасы, триллер, детектив
Режиссер: Тод Уильямс

В ролях: Брайан Боланд, Кэти Фезерстон, Вивис Кортес, Спрэг Грэйден, Молли Эфраим, Мика Слот, Сет Гинсберг, Дэвид Биренд, Уильям Хуан Прието, Джексон Ксения Прието

О фильме :
После пережитых, как им казалось, серии «взломов» своего жилища, супруги решили установить камеры слежения по всему дому. И только теперь они понимают, что события, которые разворачиваются перед ними, куда более зловещие…



Выпущено: США
Продолжительность: 01:38:04
Перевод: профессиональный (полное дублирование)

Файл
Формат: MKV
Качество: HDRip-AVC
Видео: MPEG-4 AVC, 752x424, ~ 986 Кбит/с
Аудио: AAC-LC, 2 ch, ~ 80 Кбит/с
Субтитры: Русские, английские

Общее
Уникальный идентификатор : 221968415544606592592092417968414610370 (0xA6FD8FD378CCABDA84E087FAD97753C2)
Полное имя : D:разноеParanormaljnoje.javlenije.2010.ExKinoRay.mkv
Формат : Matroska
Версия формата : Version 4 / Version 2
Размер файла : 747 Мбайт
Продолжительность : 1 ч. 38 м.
Общий поток : 1065 Кбит/сек
Дата кодирования : UTC 2017-11-16 11:45:00
Программа кодирования : mkvmerge v15.0.0 ('Duel with the Devil') 64-bit
Библиотека кодирования : libebml v1.3.5 + libmatroska v1.4.5

Видео
Идентификатор : 1
Формат : AVC
Формат/Информация : Advanced Video Codec
Профиль формата : High@L4.1
Параметр CABAC формата : Да
Параметр RefFrames формата : 10 кадров
Идентификатор кодека : V_MPEG4/ISO/AVC
Продолжительность : 1 ч. 38 м.
Битрейт : 986 Кбит/сек
Ширина : 752 пикселя
Высота : 424 пикселя
Соотношение сторон : 16:9
Режим частоты кадров : Постоянный
Частота кадров : 23,976 (24000/1001) кадра/сек
Цветовое пространство : YUV
Субдискретизация насыщенности : 4:2:0
Битовая глубина : 8 бит
Тип развёртки : Прогрессивная
Бит/(Пиксели*Кадры) : 0.129
Размер потока : 689 Мбайт (92%)
Библиотека кодирования : x264 core 152 r2851kMod ba24899
Настройки программы : cabac=1 / ref=10 / deblock=1:-3:-3 / analyse=0x3:0x133 / me=umh / subme=11 / psy=1 / fade_compensate=0.00 / psy_rd=1.00:0.10 / mixed_ref=1 / me_range=32 / chroma_me=1 / trellis=2 / 8x8dct=1 / cqm=0 / deadzone=21,11 / fast_pskip=0 / chroma_qp_offset=-3 / threads=6 / lookahead_threads=1 / sliced_threads=0 / nr=0 / decimate=0 / interlaced=0 / bluray_compat=0 / constrained_intra=0 / bframes=10 / b_pyramid=2 / b_adapt=2 / b_bias=0 / direct=3 / weightb=1 / open_gop=0 / weightp=2 / keyint=240 / keyint_min=23 / scenecut=40 / intra_refresh=0 / rc_lookahead=40 / rc=2pass / mbtree=1 / bitrate=986 / ratetol=1.0 / qcomp=0.60 / qpmin=0 / qpmax=69 / qpstep=4 / cplxblur=20.0 / qblur=0.5 / vbv_maxrate=50000 / vbv_bufsize=62500 / nal_hrd=none / filler=0 / ip_ratio=1.40 / aq=3:1.00
Default : Да
Forced : Нет

Аудио
Идентификатор : 2
Формат : AAC
Формат/Информация : Advanced Audio Codec
Профиль формата : LC
Идентификатор кодека : A_AAC
Продолжительность : 1 ч. 38 м.
Битрейт : 80,0 Кбит/сек
Каналы : 2 канала
Расположение каналов : Front: L R
Частота : 48,0 КГц
Частота кадров : 46,875 кадров/сек (1024 SPF)
Метод сжатия : С потерями
Задержка видео : 9 мс.
Размер потока : 56,1 Мбайт (8%)
Default : Да
Forced : Нет

Текст #1
Идентификатор : 3
Формат : UTF-8
Идентификатор кодека : S_TEXT/UTF8
Идентификатор кодека/Информация : UTF-8 Plain Text
Продолжительность : 1 ч. 34 м.
Битрейт : 6 бит/сек
ElementCount : 74
Размер потока : 4,24 Кбайт (0%)
Заголовок : forced
Язык : Russian
Default : Да
Forced : Нет

Текст #2
Идентификатор : 4
Формат : UTF-8
Идентификатор кодека : S_TEXT/UTF8
Идентификатор кодека/Информация : UTF-8 Plain Text
Продолжительность : 1 ч. 34 м.
Битрейт : 77 бит/сек
ElementCount : 1061
Размер потока : 53,4 Кбайт (0%)
Заголовок : full
Язык : Russian
Default : Нет
Forced : Нет

Текст #3
Идентификатор : 5
Формат : UTF-8
Идентификатор кодека : S_TEXT/UTF8
Идентификатор кодека/Информация : UTF-8 Plain Text
Продолжительность : 1 ч. 32 м.
Битрейт : 54 бит/сек
ElementCount : 1039
Размер потока : 36,5 Кбайт (0%)
Язык : English
Default : Нет
Forced : Нет

Меню
00:00:00.000 : en: Chapter 1
00:04:50.123 : en: Chapter 2
00:08:11.366 : en: Chapter 3
00:12:54.482 : en: Chapter 4
00:19:03.017 : en: Chapter 5
00:22:31.684 : en: Chapter 6
00:29:05.661 : en: Chapter 7
00:32:40.458 : en: Chapter 8
00:41:35.159 : en: Chapter 9
00:48:54.139 : en: Chapter 10
00:56:37.185 : en: Chapter 11
01:00:19.449 : en: Chapter 12
01:09:15.234 : en: Chapter 13
01:16:17.990 : en: Chapter 14
01:27:07.264 : en: Chapter 15
01:32:33.590 : en: Chapter 16




Релиз от:


_________________
Проголосуй за трекер Открытый торрент трекер - RUS-MEDIA.ORG

Проголосуй Открытый торрент трекер - RUS-MEDIA.ORG


Вернуться к началу
 Профиль Отправить личное сообщение  
 
   Похожие торренты   Автор   Торрент   Размер 
В этой теме нет новых непрочитанных сообщений. Паранормальное явление 4 / Paranormal Activity 4 [ужасы, 2012] HDRip-AVC, Dub [Unrated Сut]

salma3

24 | 5

744.91 МБ

В этой теме нет новых непрочитанных сообщений. Паранормальное явление 3 / Paranormal Activity 3 [ужасы, триллер, 2011] HDRip-AVC, Dub

salma3

27 | 5

745.55 МБ

В этой теме нет новых непрочитанных сообщений. Паранормальное явление / Paranormal Activity [ужасы, триллер, 2007] HDRip-AVC, Dub

salma3

37 | 8

746.61 МБ

В этой теме нет новых непрочитанных сообщений. Паранормальное явление 5: Призраки в 3D / Paranormal Activity: The Ghost Dimension [ужасы, 2015] HDRip-AVC, dub

salma3

29 | 9

744.01 МБ

В этой теме нет новых непрочитанных сообщений. Паранормальное явление 5: Призраки в 3D / Paranormal Activity: The Ghost Dimension [ужасы, 2015] HDRip, dub [iTunes]

Dracon

313 | 8

1.37 ГБ

В этой теме нет новых непрочитанных сообщений. Паранормальное явление 5: Призраки в 3D / Paranormal Activity: The Ghost Dimension [ужасы, 2015] BDRemux, Dub+Sub [2D | 3D-Video | Театральная версия | iTunes]

Dracon

66 | 47

28.88 ГБ

В этой теме нет новых непрочитанных сообщений. Паранормальное явление 5: Призраки в 3D / Paranormal Activity: The Ghost Dimension (Грегори Плоткин) [ужасы, 2015] BDRip 720p, dub [iTunes]

Dracon

549 | 51

4.44 ГБ


Начать новую тему Ответить на тему  [ 1 сообщение ] 




Для Мосгорсуда, Роскомнадзора и рекламодателей:: mosgorsud-torrent[собачка]yandex.ru
cron