Торрент файл
скачать торрент магнет ссылка Добавлен: 16 ноя 2017, 16:27
Размер: 746.61 МБ
Сидеров: 37
Личеров: 8
Статус: (salma3)
Автор

СообщениеДобавлено: 16 ноя 2017, 16:27 

Не в сети
Супермодератор
Аватара пользователя
Дата регистрации:
15 фев 2012, 16:44
Возраст: 28
Спасибо: 7199 / 2147
Сообщения: 64849
Год выхода: 2007
Жанр: ужасы, триллер
Режиссер: Орен Пели

В ролях: Кэти Фезерстон, Мика Слот, Марк Фредерикс, Эмбер Армстронг, Эшли Палмер, Кристал Картрайт, Рэнди Макдауэлл, Тим Пайпер

О фильме :
Молодая пара проживает в доме, который, как они подозревают, посещается некой злой силой. Чтобы зафиксировать паранормальную активность, они настраивают видеокамеру, чтобы записать свидетельство существования этой силы, появляющейся исключительно ночью, когда они спят. Тут-то и начинается самое интересное… и страшное!...



Выпущено: США, Blumhouse Productions
Продолжительность: 01:31:28
Перевод: Профессиональный (полное дублирование)

Файл
Формат: MKV
Качество: WEB-DLRip-AVC
Видео: MPEG-4 AVC, 752x424, ~ 1063 Кбит/с
Аудио: AAC-LC, 2 ch, ~ 76 Кбит/с
Субтитры: Русские, английские

Общее
Уникальный идентификатор : 225911678642701017828368003701624611237 (0xA9F501B506782AE98FAF801B146D21A5)
Полное имя : D:разноеParanormaljnoje.javlenije.2007.ExKinoRay.mkv
Формат : Matroska
Версия формата : Version 4 / Version 2
Размер файла : 747 Мбайт
Продолжительность : 1 ч. 31 м.
Общий поток : 1141 Кбит/сек
Дата кодирования : UTC 2017-11-15 12:30:16
Программа кодирования : mkvmerge v15.0.0 ('Duel with the Devil') 64-bit
Библиотека кодирования : libebml v1.3.5 + libmatroska v1.4.5

Видео
Идентификатор : 1
Формат : AVC
Формат/Информация : Advanced Video Codec
Профиль формата : High@L4.1
Параметр CABAC формата : Да
Параметр RefFrames формата : 10 кадров
Идентификатор кодека : V_MPEG4/ISO/AVC
Продолжительность : 1 ч. 31 м.
Битрейт : 1063 Кбит/сек
Ширина : 752 пикселя
Высота : 424 пикселя
Соотношение сторон : 16:9
Режим частоты кадров : Постоянный
Частота кадров : 23,976 (24000/1001) кадра/сек
Цветовое пространство : YUV
Субдискретизация насыщенности : 4:2:0
Битовая глубина : 8 бит
Тип развёртки : Прогрессивная
Бит/(Пиксели*Кадры) : 0.139
Размер потока : 695 Мбайт (93%)
Библиотека кодирования : x264 core 152 r2851kMod ba24899
Настройки программы : cabac=1 / ref=10 / deblock=1:-3:-3 / analyse=0x3:0x133 / me=umh / subme=11 / psy=1 / fade_compensate=0.00 / psy_rd=1.00:0.08 / mixed_ref=1 / me_range=32 / chroma_me=1 / trellis=2 / 8x8dct=1 / cqm=0 / deadzone=21,11 / fast_pskip=0 / chroma_qp_offset=-3 / threads=6 / lookahead_threads=1 / sliced_threads=0 / nr=0 / decimate=0 / interlaced=0 / bluray_compat=0 / constrained_intra=0 / bframes=10 / b_pyramid=2 / b_adapt=2 / b_bias=0 / direct=3 / weightb=1 / open_gop=0 / weightp=2 / keyint=240 / keyint_min=23 / scenecut=40 / intra_refresh=0 / rc_lookahead=40 / rc=2pass / mbtree=1 / bitrate=1063 / ratetol=1.0 / qcomp=0.60 / qpmin=0 / qpmax=69 / qpstep=4 / cplxblur=20.0 / qblur=0.5 / vbv_maxrate=50000 / vbv_bufsize=62500 / nal_hrd=none / filler=0 / ip_ratio=1.40 / aq=3:1.00
Default : Да
Forced : Нет

Аудио
Идентификатор : 2
Формат : AAC
Формат/Информация : Advanced Audio Codec
Профиль формата : LC
Идентификатор кодека : A_AAC
Продолжительность : 1 ч. 31 м.
Битрейт : 76,0 Кбит/сек
Каналы : 2 канала
Расположение каналов : Front: L R
Частота : 48,0 КГц
Частота кадров : 46,875 кадров/сек (1024 SPF)
Метод сжатия : С потерями
Задержка видео : 9 мс.
Размер потока : 49,7 Мбайт (7%)
Default : Да
Forced : Нет

Текст #1
Идентификатор : 3
Формат : UTF-8
Идентификатор кодека : S_TEXT/UTF8
Идентификатор кодека/Информация : UTF-8 Plain Text
Продолжительность : 1 ч. 28 м.
Битрейт : 99 бит/сек
ElementCount : 1128
Размер потока : 64,2 Кбайт (0%)
Язык : Russian
Default : Нет
Forced : Нет

Текст #2
Идентификатор : 4
Формат : UTF-8
Идентификатор кодека : S_TEXT/UTF8
Идентификатор кодека/Информация : UTF-8 Plain Text
Продолжительность : 1 ч. 27 м.
Битрейт : 65 бит/сек
ElementCount : 1116
Размер потока : 42,1 Кбайт (0%)
Язык : English
Default : Нет
Forced : Нет



Релиз от:


_________________
Проголосуй за трекер Открытый торрент трекер - RUS-MEDIA.ORG

Проголосуй Открытый торрент трекер - RUS-MEDIA.ORG


Вернуться к началу
 Профиль Отправить личное сообщение  
 
   Похожие торренты   Автор   Торрент   Размер 
В этой теме нет новых непрочитанных сообщений. Паранормальное явление 3 / Paranormal Activity 3 [ужасы, триллер, 2011] HDRip-AVC, Dub

salma3

27 | 5

745.55 МБ

В этой теме нет новых непрочитанных сообщений. Паранормальное явление 2 / Paranormal Activity 2 [ужасы, триллер, детектив, 2010] HDRip-AVC, Dub, Dub [Unrated Сut]

salma3

24 | 13

746.93 МБ

В этой теме нет новых непрочитанных сообщений. Паранормальное явление 4 / Paranormal Activity 4 [ужасы, 2012] HDRip-AVC, Dub [Unrated Сut]

salma3

24 | 5

744.91 МБ

В этой теме нет новых непрочитанных сообщений. Паранормальное явление 5: Призраки в 3D / Paranormal Activity: The Ghost Dimension [ужасы, 2015] HDRip-AVC, dub

salma3

29 | 9

744.01 МБ

В этой теме нет новых непрочитанных сообщений. Паранормальное явление 5: Призраки в 3D / Paranormal Activity: The Ghost Dimension [ужасы, 2015] HDRip, dub [iTunes]

Dracon

313 | 8

1.37 ГБ

В этой теме нет новых непрочитанных сообщений. Паранормальное явление 5: Призраки в 3D / Paranormal Activity: The Ghost Dimension (Грегори Плоткин) [ужасы, 2015] BDRip 720p, dub [iTunes]

Dracon

549 | 51

4.44 ГБ

В этой теме нет новых непрочитанных сообщений. Паранормальное явление 5: Призраки в 3D / Paranormal Activity: The Ghost Dimension [ужасы, 2015] BDRemux, Dub+Sub [2D | 3D-Video | Театральная версия | iTunes]

Dracon

66 | 47

28.88 ГБ


Начать новую тему Ответить на тему  [ 1 сообщение ] 




Для Мосгорсуда, Роскомнадзора и рекламодателей:: mosgorsud-torrent[собачка]yandex.ru
cron