Торрент файл
скачать торрент магнет ссылка Добавлен: 16 апр 2011, 19:56
Размер: 2.92 ГБ
Сидеров: 0
Личеров: 3
Автор

СообщениеДобавлено: 16 апр 2011, 19:56 

Не в сети
Супермодератор
Аватара пользователя
Дата регистрации:
22 май 2010, 11:03
Возраст: 32
Спасибо: 7690 / 13
Сообщения: 49871
Бруклинские полицейские / Brooklyn's Finest



Перевод: Профессиональный (двухголосый, закадровый R5), Субтитры: Русские,английские

Формат: HDRip, MKV, MPEG4, AC3
Страна: США
Режиссер: Антуан Фукуа / Antoine Fuqua
Жанр: Боевик, триллер, драма, криминал.
Продолжительность: 02:12:38
Год выпуска: 2009

В ролях: Ричард Гир, Уэсли Снайпс, Дон Чидл, Этан Хоук, Винсент Д`Онофрио, Брайан Ф. О’Бирн, Уилл Пэттон, Лили Тейлор, Эллен Баркин, Джесси Уильямс

Описание: Фильм повествует о трех никак между собой не связанных бруклинских полицейских, которые оказываются в одной судьбоносной сюжетной точке, несмотря на совершенно разные карьеры: один — работает под прикрытием в среде наркомафии, второй — коррумпирован по самое не балуйся, третий — всегда играл по правилам и теперь хочет только спокойно дожить до почетной отставки.

Рейтинг Кинопоиск.RU: 6.733
Рейтинг IMDB: 7.0/10
Рейтинг MPAA: R

Видео: 1280x536 (2.35:1), MPEG4 AVC (x264) ~2 253 kbps avg,0.137 bit/pixel
Аудио: Русский:48 kHz, AC3 Dolby Digital, 3/2 (L,C,R,l,r) + LFE ch, ~448.00 kbps avg[Профессиональный двухголосый]
Аудио: Английский:48 kHz, AC3 Dolby Digital, 3/2 (L,C,R,l,r) + LFE ch, ~448.00 kbps avg[Оригинал]




Дензел Вашингтон отклонил роль Танго.

General
Format: Matroska
File size: 2.92 GiB
Duration: 2h 12mn
Overall bit rate: 3 151 Kbps
Movie name: Brooklyn's Finest 2009
Encoded date: UTC 2010-07-06 17:12:35
Writing application: mkvmerge v4.0.0 ('The Stars were mine') сборка от Jun6 2010 16:18:42
Writing library: libebml v1.0.0 + libmatroska v1.0.0
Cover: Yes
Video
ID: 1
Format: AVC
Format/Info: Advanced Video Codec
Format profile:
Format settings, CABAC: Yes
Format settings, ReFrames: 11 frames
Muxing mode: Container profile=Unknown@4.1
Codec ID: V_MPEG4/ISO/AVC
Duration: 2h 12mn
Bit rate: 2 253 Kbps
Width: 1 280 pixels
Height: 536 pixels
Display aspect ratio: 2.35:1
Frame rate: 23.976 fps
Color space: YUV
Chroma subsampling: 4:2:0
Bit depth: 8 bits
Scan type: Progressive
Bits/(Pixel*Frame): 0.137
Stream size: 2.03 GiB (70%)
Title: Brooklyn's Finest 2009
Writing library: x264 core 100 r1659 57b2e56
Encoding settings: cabac=1 / ref=11 / deblock=1:-2:-1 / analyse=0x3:0x133 / me=umh / subme=10 / psy=1 / psy_rd=1.00:0.05 / mixed_ref=1 /
me_range=32 / chroma_me=1 / trellis=2 / 8x8dct=1 / cqm=0 / deadzone=21,11 / fast_pskip=0 / chroma_qp_offset=-3 / threads=6 / sliced_threads=0 /
nr=0 / decimate=1 / interlaced=0 / constrained_intra=0 / bframes=9 / b_pyramid=2 / b_adapt=2 / b_bias=0 / direct=3 / weightb=1 / open_gop=0 /
weightp=2 / keyint=250 / keyint_min=25 / scenecut=40 / intra_refresh=0 / rc_lookahead=100 / rc=2pass / mbtree=1 / bitrate=2253 / ratetol=1.0 /
qcomp=0.72 / qpmin=10 / qpmax=51 / qpstep=4 / cplxblur=20.0 / qblur=0.5 / ip_ratio=1.40 / aq=2:0.90 / zones=181310,190823,q=30
Audio #1
ID: 2
Format: AC-3
Format/Info: Audio Coding 3
Mode extension: CM (complete main)
Codec ID: A_AC3
Duration: 2h 12mn
Bit rate mode: Constant
Bit rate: 448 Kbps
Channel(s): 6 channels
Channel positions: Front: L C R, Side: L R, LFE
Sampling rate: 48.0 KHz
Stream size: 425 MiB (14%)
Title: DVO, 48 kHz, AC3 Dolby Digital, 3/2 (L,C,R,l,r) + LFE ch, ~448.00 kbps avg
Language: Russian
Audio #2
ID: 3
Format: AC-3
Format/Info: Audio Coding 3
Mode extension: CM (complete main)
Codec ID: A_AC3
Duration: 2h 12mn
Bit rate mode: Constant
Bit rate: 448 Kbps
Channel(s): 6 channels
Channel positions: Front: L C R, Side: L R, LFE
Sampling rate: 48.0 KHz
Stream size: 425 MiB (14%)
Title: Original, 48 kHz, AC3 Dolby Digital, 3/2 (L,C,R,l,r) + LFE ch, ~448.00 kbps avg
Text #1
ID: 4
Format: UTF-8
Codec ID: S_TEXT/UTF8
Codec ID/Info: UTF-8 Plain Text
Title: qub@bk
Language: Russian
Text #2
ID: 5
Format: UTF-8
Codec ID: S_TEXT/UTF8
Codec ID/Info: UTF-8 Plain Text
Title: BD | SDH (Subtitles for the Deaf and Hard of Hearing)
Text #3
ID: 6
Format: UTF-8
Codec ID: S_TEXT/UTF8
Codec ID/Info: UTF-8 Plain Text
Menu
00:00:00.000: en:Main Title/Righter & Wronger [4:47]
00:04:46.244: en:Imperfect Creatures [7:00]
00:11:46.871: en:One More Week [7:30]
00:19:18.115: en:Taking It Home [7:01]
00:26:19.828: en:On the Outside [5:32]
00:31:52.952: en:"What Do You See When You Look At Me? [7:56]
00:39:49.804: en:Drug Raid [4:22]
00:44:12.524: en:One Lousy Thing [10:53]
00:55:06.344: en:Crack In the Veneer [15:10]
01:10:17.588: en:A Ghost & A Legend [7:36]
01:17:54.419: en:Face to Face [6:11]
01:24:05.832: en:Expiration Dates [7:43]
01:31:49.462: en:Convergence [6:07]
01:44:44.319: en:BK Houses [6:46]
02:00:18.377: en:A Ghost In the Night [15:33]
02:06:04.181: en:End Credits [5:45]










реклама партнёра


Вернуться к началу
 Профиль Отправить личное сообщение  
 
   Похожие торренты   Автор   Торрент   Размер 
В этой теме нет новых непрочитанных сообщений. Бруклинские полицейские / Brooklyn's Finest [триллер, драма, криминал, 2009] BDRip 1080p, Dub+dvo+Avo+sub

salma3

7 | 8

16.13 ГБ

В этой теме нет новых непрочитанных сообщений. Левша / Southpaw (Антуан Фукуа) [Драма, спорт, боевик, триллер, 2015] HDRip, Dub [iTunes]

Dracon

259 | 4

2.05 ГБ

В этой теме нет новых непрочитанных сообщений. Левша / Southpaw (Антуан Фукуа) [Драма, спорт, боевик, триллер, 2015] HDRip, Dub [iTunes]

Dracon

1787 | 113

1.37 ГБ

В этой теме нет новых непрочитанных сообщений. Левша / Southpaw (Антуан Фукуа) [2015, Драма, спорт, боевик, триллер, BDRip-AVC | Чадов] avo

Dracon

161 | 14

2.42 ГБ

В этой теме нет новых непрочитанных сообщений. Левша / Southpaw (Антуан Фукуа) [Драма, спорт, боевик, триллер, 2015] WEB-DLRip-AVC, Dub [iTunes]

Dracon

4024 | 272

2.16 ГБ

В этой теме нет новых непрочитанных сообщений. Левша / Southpaw (Антуан Фукуа) [Драма, спорт, боевик, триллер, 2015] BDRip 1080p, Dub [iTunes]

Dracon

180 | 20

9.07 ГБ

В этой теме нет новых непрочитанных сообщений. Левша / Southpaw (Антуан Фукуа) [Драма, спорт, боевик, триллер, 2015] BDRip 720p, Dub [iTunes]

Dracon

217 | 25

5.8 ГБ


Начать новую тему Ответить на тему  [ 1 сообщение ] 




Для Мосгорсуда, Роскомнадзора и рекламодателей:: mosgorsud-torrent[собачка]yandex.ru