Торрент файл
скачать торрент магнет ссылка Добавлен: 12 ноя 2017, 12:01
Размер: 745.04 МБ
Сидеров: 107
Личеров: 21
Статус: (salma3)
Автор

СообщениеДобавлено: 12 ноя 2017, 12:01 

Не в сети
Супермодератор
Аватара пользователя
Дата регистрации:
15 фев 2012, 16:44
Возраст: 28
Спасибо: 7205 / 2147
Сообщения: 65334
Год выхода: 2005
Жанр: фантастика, боевик, триллер
Режиссер: Карин Кусама

В ролях: Шарлиз Терон, Мартон Чокаш, Джонни Ли Миллер, Софи Оконедо, Фрэнсис МакДорманд, Пит Постлтуэйт, Амелия Уорнер, Кэролайн Чикези, Николай Кински, Патерсон Джозеф, Янгзом Брауен, Aoibheann O'Hara, Томас Хубер, Weijian Liu, Maverick Queck, Ральф Херфорт, Меган Гэй, Райнер Уилл, Charlie Beall, Бруно Бруни мл., Рональд Маркс

О фильме :
Действие фильма происходит в будущем, когда после эпидемии 2011 г. погибло 99 % населения Земли. После разработки доктором Гудчайлдом вакцины оставшиеся несколько миллионов человек основали город Брегну, где на протяжении 400 лет правит технократическая династия Гудчайлдов. Над городом передвигается летающий объект — реликл, который служит напоминанием об эпидемии. В городе действует мятежная организация «мониканцев», члены которой считают режим Гудчайлдов нелегитимным, обвиняя его в подавлении свободы и убийствах инакомыслящих. Кроме того, у жителей города появляются странные воспоминания о событиях, которых не было....



Страна: Германия, США
Продолжительность: 01:32:52
Перевод: Профессиональный (полное дублирование)

Файл
Формат: MKV
Качество: HDRip-AVC
Видео: MPEG-4 AVC, 768x328, ~ 1045 Кбит/с
Аудио: AAC-LC, 2 ch, ~ 76 Кбит/с
Субтитры: Русские, английские

Общее
Уникальный идентификатор : 216225832359596468852097928439313802197 (0xA2AB949D8EC747CE868B0647D00523D5)
Полное имя : D:MOVIESAEon.Flux.2005.ExKinoRay.mkv
Формат : Matroska
Версия формата : Version 4 / Version 2
Размер файла : 745 Мбайт
Продолжительность : 1 ч. 32 м.
Общий поток : 1122 Кбит/сек
Дата кодирования : UTC 2017-11-12 05:39:44
Программа кодирования : mkvmerge v15.0.0 ('Duel with the Devil') 64-bit
Библиотека кодирования : libebml v1.3.5 + libmatroska v1.4.5

Видео
Идентификатор : 1
Формат : AVC
Формат/Информация : Advanced Video Codec
Профиль формата : High@L4.1
Параметр CABAC формата : Да
Параметр RefFrames формата : 10 кадров
Идентификатор кодека : V_MPEG4/ISO/AVC
Продолжительность : 1 ч. 32 м.
Битрейт : 1045 Кбит/сек
Ширина : 768 пикселей
Высота : 328 пикселей
Соотношение сторон : 2,35:1
Режим частоты кадров : Постоянный
Частота кадров : 23,976 (24000/1001) кадра/сек
Цветовое пространство : YUV
Субдискретизация насыщенности : 4:2:0
Битовая глубина : 8 бит
Тип развёртки : Прогрессивная
Бит/(Пиксели*Кадры) : 0.173
Размер потока : 693 Мбайт (93%)
Библиотека кодирования : x264 core 152 r2851kMod ba24899
Настройки программы : cabac=1 / ref=10 / deblock=1:-3:-2 / analyse=0x3:0x133 / me=umh / subme=11 / psy=1 / fade_compensate=0.00 / psy_rd=1.00:0.05 / mixed_ref=1 / me_range=32 / chroma_me=1 / trellis=2 / 8x8dct=1 / cqm=0 / deadzone=21,11 / fast_pskip=0 / chroma_qp_offset=-3 / threads=6 / lookahead_threads=1 / sliced_threads=0 / nr=0 / decimate=0 / interlaced=0 / bluray_compat=0 / constrained_intra=0 / bframes=10 / b_pyramid=2 / b_adapt=2 / b_bias=0 / direct=3 / weightb=1 / open_gop=0 / weightp=2 / keyint=240 / keyint_min=23 / scenecut=40 / intra_refresh=0 / rc_lookahead=40 / rc=2pass / mbtree=1 / bitrate=1045 / ratetol=1.0 / qcomp=0.60 / qpmin=0 / qpmax=69 / qpstep=4 / cplxblur=20.0 / qblur=0.5 / vbv_maxrate=50000 / vbv_bufsize=62500 / nal_hrd=none / filler=0 / ip_ratio=1.40 / aq=3:1.00
Default : Да
Forced : Нет

Аудио
Идентификатор : 2
Формат : AAC
Формат/Информация : Advanced Audio Codec
Профиль формата : LC
Идентификатор кодека : A_AAC
Продолжительность : 1 ч. 32 м.
Битрейт : 76,0 Кбит/сек
Каналы : 2 канала
Расположение каналов : Front: L R
Частота : 48,0 КГц
Частота кадров : 46,875 кадров/сек (1024 SPF)
Метод сжатия : С потерями
Задержка видео : 9 мс.
Размер потока : 50,5 Мбайт (7%)
Default : Да
Forced : Нет

Текст #1
Идентификатор : 3
Формат : UTF-8
Идентификатор кодека : S_TEXT/UTF8
Идентификатор кодека/Информация : UTF-8 Plain Text
Продолжительность : 1 ч. 24 м.
Битрейт : 55 бит/сек
ElementCount : 724
Размер потока : 34,3 Кбайт (0%)
Язык : Russian
Default : Нет
Forced : Нет

Текст #2
Идентификатор : 4
Формат : ASS
Идентификатор кодека : S_TEXT/ASS
Идентификатор кодека/Информация : Advanced Sub Station Alpha
Продолжительность : 1 ч. 23 м.
Битрейт : 67 бит/сек
ElementCount : 721
Метод сжатия : Без потерь
Размер потока : 41,1 Кбайт (0%)
Язык : English
Default : Нет
Forced : Нет

Меню
00:00:00.000 : en:00:00:00.000
00:03:43.264 : en:00:03:43.264
00:05:27.785 : en:00:05:27.785
00:07:27.530 : en:00:07:27.530
00:09:48.754 : en:00:09:48.754
00:11:34.693 : en:00:11:34.693
00:14:50.389 : en:00:14:50.389
00:18:12.966 : en:00:18:12.966
00:19:22.786 : en:00:19:22.786
00:22:08.493 : en:00:22:08.493
00:24:17.455 : en:00:24:17.455
00:26:32.173 : en:00:26:32.173
00:29:07.829 : en:00:29:07.829
00:31:02.986 : en:00:31:02.986
00:33:25.878 : en:00:33:25.878
00:36:20.011 : en:00:36:20.011
00:38:10.871 : en:00:38:10.871
00:42:48.357 : en:00:42:48.357
00:43:34.987 : en:00:43:34.987
00:44:40.093 : en:00:44:40.093
00:48:05.966 : en:00:48:05.966
00:50:32.112 : en:00:50:32.112
00:52:23.640 : en:00:52:23.640
00:54:07.786 : en:00:54:07.786
00:59:31.901 : en:00:59:31.901
01:00:22.743 : en:01:00:22.743
01:02:47.305 : en:01:02:47.305
01:04:47.383 : en:01:04:47.383
01:06:50.673 : en:01:06:50.673
01:08:09.376 : en:01:08:09.376
01:08:25.934 : en:01:08:25.934
01:10:44.740 : en:01:10:44.740
01:15:08.628 : en:01:15:08.628
01:21:09.447 : en:01:21:09.447
01:24:23.474 : en:01:24:23.474
01:25:49.852 : en:01:25:49.852



Релиз от:


_________________
Проголосуй за трекер Открытый торрент трекер - RUS-MEDIA.ORG

Проголосуй Открытый торрент трекер - RUS-MEDIA.ORG


Вернуться к началу
 Профиль Отправить личное сообщение  
 
   Похожие торренты   Автор   Торрент   Размер 
В этой теме нет новых непрочитанных сообщений. Миссия «Серенити» / Serenity [фантастика, боевик, триллер, 2005] HDRip-AVC, Dvo

salma3

12 | 4

744.38 МБ

В этой теме нет новых непрочитанных сообщений. Сахара / Sahara [боевик, триллер, комедия, 2005] HDRip, Dub

salma3

19 | 4

1.45 ГБ

В этой теме нет новых непрочитанных сообщений. Электра / Elektra [фантастика, боевик, триллер, 2005] BDRip, Dvo [Theatrical Cut]

salma3

1 | 1

1.46 ГБ

В этой теме нет новых непрочитанных сообщений. Миссия «Серенити» / Serenity [Фантастика, боевик, триллер, 2005] UHD BDRemux 2160p, Dub [4K]

salma3

0 | 0

54.09 ГБ

В этой теме нет новых непрочитанных сообщений. Добро пожаловать в рай! / Into the Blue [Боевик, триллер, криминал, приключения, 2005] HDRip-AVC, Dub

salma3

171 | 42

746.02 МБ

В этой теме нет новых непрочитанных сообщений. S.P.L. Звезды судьбы / Saat po long [боевик, триллер, криминал, 2005] HDRip, Mvo

salma3

1271 | 333

1.44 ГБ

В этой теме нет новых непрочитанных сообщений. И грянул гром / A Sound of Thunder [ужасы, фантастика, боевик, триллер, приключения, 2005] BDRip 1080p, Dub

salma3

36 | 7

11.61 ГБ


Начать новую тему Ответить на тему  [ 1 сообщение ] 




Для Мосгорсуда, Роскомнадзора и рекламодателей:: mosgorsud-torrent[собачка]yandex.ru
cron