Торрент файл
скачать торрент магнет ссылка Добавлен: 16 апр 2011, 19:55
Размер: 1.37 ГБ
Сидеров: 62
Личеров: 5
Автор

СообщениеДобавлено: 16 апр 2011, 19:55 

Не в сети
Супермодератор
Аватара пользователя
Дата регистрации:
22 май 2010, 11:03
Возраст: 31
Спасибо: 7524 / 13
Сообщения: 49940
Необычайные приключения Адель / Les aventures extraordinaires d'Adèle Blanc-Sec



Перевод: Профессиональный (полное дублирование), Субтитры: Отсутствуют

Формат: DVDRip, MKV, MPEG4, AC3
Страна: Франция
Режиссер: Люк Бессон
Жанр: Боевик, фэнтези, приключения, детектив
Продолжительность: 01:42:31
Год выпуска: 2010

В ролях: Матье Амальрик, Луиз Бургуэн, Филипп Наон, Николас Жиро, Жилль Лелуш, Фредерик Бел, Жан-Поль Рув, Мусса Мааскри, Эрик Нэггар

Описание: Адель работала журналистом в одном из издательств Парижа. Она увлекалась темой коррупции и культом личности. Не смотря на свою молодость, она очень настойчиво стремилась к своей цели. Чтобы воплотить эти мечты в реальность, Адель решила посетить Египет, пренебрегая собственной безопасностью...

Рейтинг Кинопоиск.RU: 6.381
Рейтинг IMDB:6.0/10


Видео: 720x432 @ 1024х432 (2.35:1), 25.000 fps, MPEG4 AVC (x264) ~1 467 kbps avg, 0.189 bit/pixel
Аудио: 48 kHz, AC3, 6 ch, ~448 kbps avg




Format : Matroska
File size : 1.05 GiB
Duration : 1h 42mn
Overall bit rate : 1 468 Kbps
Writing application : x264 r1698 c41b8f0
Writing library : Haali Matroska Writer b0
Video
ID : 1
Format : AVC
Format/Info : Advanced Video Codec
Format profile :
Format settings, CABAC : Yes
Format settings, ReFrames : 10 frames
Muxing mode : Container profile=Unknown@3.1
Codec ID : V_MPEG4/ISO/AVC
Duration : 1h 42mn
Bit rate : 1 467 Kbps
Width : 720 pixels
Height : 432 pixels
Display aspect ratio : 2.35:1
Frame rate : 25.000 fps
Color space : YUV
Chroma subsampling : 4:2:0
Bit depth : 8 bits
Scan type : Progressive
Bits/(Pixel*Frame) : 0.189
Stream size : 1.03 GiB (98%)
Writing library : x264 core 104 r1698 c41b8f0
Encoding settings : cabac=1 / ref=10 / deblock=1:-2:-2 / analyse=0x3:0x133 / me=tesa / subme=10 / psy=1 / psy_rd=0.00:0.00 / mixed_ref=1 / me_range=32 / chroma_me=1 / trellis=2 / 8x8dct=1 / cqm=0 / deadzone=21,11 / fast_pskip=0 / chroma_qp_offset=0 / threads=6 / sliced_threads=0 / nr=0 / decimate=1 / interlaced=0 / constrained_intra=0 / bframes=10 / b_pyramid=2 / b_adapt=2 / b_bias=0 / direct=3 / weightb=1 / open_gop=0 / weightp=2 / keyint=250 / keyint_min=25 / scenecut=40 / intra_refresh=0 / rc_lookahead=60 / rc=2pass / mbtree=1 / bitrate=1467 / ratetol=1.0 / qcomp=0.80 / qpmin=10 / qpmax=51 / qpstep=4 / cplxblur=20.0 / qblur=0.5 / ip_ratio=1.40 / aq=1:1.00
Audio
ID : 2
Format : AC-3
Format/Info : Audio Coding 3
Mode extension : CM (complete main)
Codec ID : A_AC3
Duration : 1h 42mn
Bit rate mode : Constant
Bit rate : 448 Kbps
Channel(s) : 6 channels
Channel positions : Front: L C R, Side: L R, LFE
Sampling rate : 48.0 KHz
Stream size : 329 MiB (23%)









реклама партнёра


Вернуться к началу
 Профиль Отправить личное сообщение  
 
   Похожие торренты   Автор   Торрент   Размер 
В этой теме нет новых непрочитанных сообщений. Приключения Раввина Якова / Les Aventures de Rabbi Jacob [Комедия, приключения, 1973] BDRip 1080p, Dub+2Mvo+Dvo+Avo+Sub

salma3

13 | 2

11.62 ГБ

В этой теме нет новых непрочитанных сообщений. Приключения Раввина Якова / Les Aventures de Rabbi Jacob [Комедия, приключения, 1973] BDRip 720p, Dub+2Mvo+Dvo+Avo+Sub

salma3

47 | 5

5.64 ГБ

В этой теме нет новых непрочитанных сообщений. Люси / Lucy (Люк Бессон) [2014, Люк Бессон, WEBRip 720p | Чистый звук] Dub

Nickolas3435

8880 | 67

1.68 ГБ

В этой теме нет новых непрочитанных сообщений. Новые приключения Аладдина / Les nouvelles aventures d'Aladin [Комедия, 2015] HDRip, Dub [iTunes]

Dracon

2499 | 542

1.37 ГБ

В этой теме нет новых непрочитанных сообщений. Новые приключения Аладдина / Les nouvelles aventures d'Aladin [Комедия, 2015] BDRip 720p, dub [iTunes]

Dracon

639 | 47

4.66 ГБ

В этой теме нет новых непрочитанных сообщений. Последний киногерой / Last Action Hero [фэнтези, боевик, комедия, приключения, 1993] BDRip, Dub

salma3

27 | 1

1.46 ГБ

В этой теме нет новых непрочитанных сообщений. Blanc Faces - Falling From The Moon [2009, Melodic Rock, MP3]

PriZraK

0 | 2

108.68 МБ


Начать новую тему Ответить на тему  [ 1 сообщение ] 




Для Мосгорсуда, Роскомнадзора и рекламодателей:: mosgorsud-torrent[собачка]yandex.ru