Торрент файл
скачать торрент магнет ссылка Добавлен: 11 ноя 2017, 12:20
Размер: 1.36 ГБ
Сидеров: 72
Личеров: 19
Статус: (salma3)
Автор

СообщениеДобавлено: 11 ноя 2017, 12:20 

В сети
Супермодератор
Аватара пользователя
Дата регистрации:
15 фев 2012, 16:44
Возраст: 28
Спасибо: 6925 / 2147
Сообщения: 52932
Год выхода: 2017
Жанр: Триллер, драма, музыка
Режиссер: Джулия Гэльперин

В ролях: Эллисон Толман, Софи Рид, ДжоБет Уильямс, Луис Бордонада, Ларри Дотсон, Тэннер Бирд, Моника Строу, Дэннис Алком и другие

О фильме:
Странная женщина приезжает в Техас, чтобы встретиться со своей родной по отцу сестрой и претендовать на наследие семейной музыки - так или иначе.



Страна: США, Small Drama, Blue Suitcase Productions, Orka
Продолжительность: 01:41:44
Перевод: Любительский (двухголосый закадровый)[RecentFilms]

Файл
Кодек: XviD
Качество: HDRip
Видео: 720x384, 23,976 fps, ~1709 Kbps, 0.26 bit/pixel
Аудио rus: AC3, 48 kHz, 2 ch, 192 Kbps

Реклама: присутствует

Семпл

General
Complete name : F:FilmsBarracuda.2017.HDRip.RecentFilmsBarracuda.2017.HDRip.RecentFilms.avi
Format : AVI
Format/Info : Audio Video Interleave
Format profile : OpenDML
File size : 1.36 GiB
Duration : 1h 41mn
Overall bit rate : 1 908 Kbps
Writing application : Lavf57.71.100

Video
ID : 0
Format : MPEG-4 Visual
Format profile : Advanced Simple@L5
Format settings, BVOP : 1
Format settings, QPel : No
Format settings, GMC : No warppoints
Format settings, Matrix : Default (H.263)
Codec ID : XVID
Codec ID/Hint : XviD
Duration : 1h 41mn
Bit rate : 1 704 Kbps
Width : 720 pixels
Height : 384 pixels
Display aspect ratio : 1.85:1
Frame rate : 23.976 (24000/1001) fps
Color space : YUV
Chroma subsampling : 4:2:0
Bit depth : 8 bits
Scan type : Progressive
Compression mode : Lossy
Bits/(Pixel*Frame) : 0.257
Stream size : 1.21 GiB (89%)
Writing library : XviD 67

Audio
ID : 1
Format : AC-3
Format/Info : Audio Coding 3
Mode extension : CM (complete main)
Format settings, Endianness : Big
Codec ID : 2000
Duration : 1h 41mn
Bit rate mode : Constant
Bit rate : 192 Kbps
Channel(s) : 2 channels
Channel positions : Front: L R
Sampling rate : 48.0 KHz
Frame rate : 31.250 fps (1536 spf)
Bit depth : 16 bits
Compression mode : Lossy
Stream size : 140 MiB (10%)
Alignment : Aligned on interleaves
Interleave, duration : 32 ms (0.77 video frame)



Релиз от: RecentFilms


_________________
Проголосуй за трекер Открытый торрент трекер - RUS-MEDIA.ORG

Проголосуй Открытый торрент трекер - RUS-MEDIA.ORG



реклама партнёра


Вернуться к началу
 Профиль Отправить личное сообщение  
 
   Похожие торренты   Автор   Торрент   Размер 
В этой теме нет новых непрочитанных сообщений. Барракуда / Barracuda [триллер, драма, криминал, 2017] WEB-DLRip, Mvo [AlexFilm]

salma3

23 | 7

1.46 ГБ

В этой теме нет новых непрочитанных сообщений. Патти Кейкс / Patti Cake$ [драма, музыка, 2017] HDRip, Mvo [iTunes]

salma3

42 | 5

1.46 ГБ

В этой теме нет новых непрочитанных сообщений. Девушка из песни / The Girl from the Song [драма, мелодрама, музыка, 2017] HDRip, Dvo

salma3

140 | 39

1.37 ГБ

В этой теме нет новых непрочитанных сообщений. Призрак рая / Phantom of the Paradise [Фэнтези, триллер, драма, комедия, музыка, 1974] HDRip, Dvo

salma3

33 | 8

744.71 МБ

В этой теме нет новых непрочитанных сообщений. Тюрьма «Лакхнау Централ» / Lucknow Central [боевик, триллер, драма, музыка, 2017] WEBDLRip, Mvo

salma3

83 | 17

1.46 ГБ

В этой теме нет новых непрочитанных сообщений. Танцовщица / La danseuse [драма, биография, музыка, 2016] HDRip, Mvo

salma3

58 | 25

2.04 ГБ

В этой теме нет новых непрочитанных сообщений. Кармен / Carmen [драма, мелодрама, музыка, 1983] HDRip, Mvo

salma3

0 | 0

1.46 ГБ


Начать новую тему Ответить на тему  [ 1 сообщение ] 




Для Мосгорсуда, Роскомнадзора и рекламодателей:: mosgorsud-torrent[собачка]yandex.ru
cron