Торрент файл
скачать торрент магнет ссылка Добавлен: 10 ноя 2017, 22:49
Размер: 1.98 ГБ
Сидеров: 14
Личеров: 1
Статус: (salma3)
Автор

СообщениеДобавлено: 10 ноя 2017, 22:49 

Не в сети
Супермодератор
Аватара пользователя
Дата регистрации:
15 фев 2012, 16:44
Возраст: 28
Спасибо: 7290 / 2147
Сообщения: 70489
Год выхода: 1985
Жанр: Комедия
Режиссер: Филипп де Брока

В ролях: Клод Брассер, Валери Каприски, Мартин Ламотт, Стефан Одран, Клементин Селарье, Мари-Анн Шазель, Жак Легра, Анри Вирложо, Лайонел Де Бар, Филипп де Брока, Ален Терзьян

О фильме: Какова же в действительности жизнь богатого банкира?! В случае нашего героя, по имени Юбер она, мягко говоря, оставляет желать лучшего. Жадная жена, ненасытная любовница, капризная дочь… Эти печальные обстоятельства превращают привычный для нашего восприятия сибаритский рай в жалкое существование. Но вот однажды судьба подкидывает толстосуму неожиданный сюрприз… Пытаясь оказать помощь лежащей на дороге девушке — Ююбер попадает в переделку. Его грабит банда цыган под предводительством прекрасной Виктории. После этого случая жизнь респектабельного финансиста становится шумным цыганским балаганом..



Страна: Франция
Продолжительность: 01:28:07
Перевод: Профессиональный многоголосый (ТВЦ)

Файл
Качество: DVDRip-AVC
Видео: MPEG-4 AVC, 2800 Кбит/с, 718x552@1020x552
Звук: Русский (AC3, 2 ch, 192 Кбит/с), французский (AC3, 2 ch, 224 Кбит/с)

Семпл

raw [info]: 718x552p 64:45 @ 25/1 fps (cfr)
x264 [info]: using SAR=64/45
x264 [info]: using cpu capabilities: MMX2 SSE2Fast LZCNT
x264 [info]: profile High, level 4.1
x264 [info]: frame I:803 Avg QP:16.57 size: 55415
x264 [info]: frame P:31020 Avg QP:19.38 size: 26454
x264 [info]: frame B:100352 Avg QP:21.34 size: 9816
x264 [info]: consecutive B-frames: 2.3% 4.2% 9.1% 25.0% 22.2% 30.5% 4.6% 0.8% 0.3% 0.1% 0.1% 0.1% 0.1% 0.1% 0.2% 0.1% 0.2%
-----
Общее
Уникальный идентификатор : 228687719965806957177125176427638778877 (0xAC0BA71C8FFF74B987BB6EF35DED6BFD)
Полное имя : D:\ExKinoRay\Tsiganka.1985.DVDRip-AVC.ExKinoRay.mkv
Формат : Matroska
Версия формата : Version 2
Размер файла : 1,98 Гбайт
Продолжительность : 1 ч. 28 м.
Общий поток : 3218 Кбит/сек
Дата кодирования : UTC 2017-11-10 11:53:29
Программа кодирования : mkvmerge v7.8.0 ('River Man') 32bit built on Apr 3 2015 12:11:22
Библиотека кодирования : libebml v1.3.1 + libmatroska v1.4.2

Видео
Идентификатор : 1
Формат : AVC
Формат/Информация : Advanced Video Codec
Профиль формата : High@L4.1
Параметр CABAC формата : Да
Параметр ReFrames формата : 14 кадров
Идентификатор кодека : V_MPEG4/ISO/AVC
Продолжительность : 1 ч. 28 м.
Битрейт : 2800 Кбит/сек
Ширина : 718 пикселей
Высота : 552 пикселя
Соотношение сторон : 1,85:1
Режим частоты кадров : Постоянный
Частота кадров : 25,000 кадров/сек
Цветовое пространство : YUV
Субдискретизация насыщенности : 4:2:0
Битовая глубина : 8 бит
Тип развёртки : Прогрессивная
Бит/(Пиксели*Кадры) : 0.283
Размер потока : 1,68 Гбайт (85%)
Библиотека кодирования : x264 core 148 r2638 7599210
Настройки программы : cabac=1 / ref=14 / deblock=1:-2:-2 / analyse=0x3:0x133 / me=umh / subme=10 / psy=1 / psy_rd=1.05:0.15 / mixed_ref=1 / me_range=32 / chroma_me=1 / trellis=2 / 8x8dct=1 / cqm=0 / deadzone=21,11 / fast_pskip=0 / chroma_qp_offset=-3 / threads=4 / lookahead_threads=1 / sliced_threads=0 / nr=0 / decimate=0 / interlaced=0 / bluray_compat=0 / constrained_intra=0 / bframes=16 / b_pyramid=2 / b_adapt=2 / b_bias=0 / direct=3 / weightb=1 / open_gop=0 / weightp=2 / keyint=250 / keyint_min=25 / scenecut=40 / intra_refresh=0 / rc=2pass / mbtree=0 / bitrate=2800 / ratetol=1.0 / qcomp=0.60 / qpmin=0 / qpmax=69 / qpstep=4 / cplxblur=20.0 / qblur=0.5 / ip_ratio=1.40 / pb_ratio=1.30 / aq=1:1.00
Язык : English
Default : Да
Forced : Нет
Цветовой диапазон : Limited
Основные цвета : BT.601 NTSC
Характеристики трансфера : BT.601
Коэффициенты матрицы : BT.601

Аудио #1
Идентификатор : 2
Формат : AC-3
Формат/Информация : Audio Coding 3
Расширение режима : CM (complete main)
Параметр Endianness формата : Big
Идентификатор кодека : A_AC3
Продолжительность : 1 ч. 28 м.
Вид битрейта : Постоянный
Битрейт : 192 Кбит/сек
Каналы : 2 канала
Расположение каналов : Front: L R
Частота : 48,0 КГц
Частота кадров : 31,250 кадров/сек (1536 spf)
Метод сжатия : С потерями
Размер потока : 121 Мбайт (6%)
Язык : Russian
Default : Да
Forced : Нет

Аудио #2
Идентификатор : 3
Формат : AC-3
Формат/Информация : Audio Coding 3
Расширение режима : CM (complete main)
Параметр Endianness формата : Big
Идентификатор кодека : A_AC3
Продолжительность : 1 ч. 28 м.
Вид битрейта : Постоянный
Битрейт : 224 Кбит/сек
Каналы : 2 канала
Расположение каналов : Front: L R
Частота : 48,0 КГц
Частота кадров : 31,250 кадров/сек (1536 spf)
Метод сжатия : С потерями
Размер потока : 141 Мбайт (7%)
Язык : French
Default : Нет
Forced : Нет


Релиз от: Rip by:


_________________
Проголосуй за трекер Открытый торрент трекер - RUS-MEDIA.ORG

Проголосуй Открытый торрент трекер - RUS-MEDIA.ORG


Вернуться к началу
 Профиль Отправить личное сообщение  
 
   Похожие торренты   Автор   Торрент   Размер 
В этой теме нет новых непрочитанных сообщений. Цыганка / Gypsy [S01] [триллер, драма, 2017] WEBRip, Mvo [Baibako]

salma3

435 | 471

5.76 ГБ

В этой теме нет новых непрочитанных сообщений. Цыганка / Gypsy [S01] [триллер, драма, 2017] WEBRip 1080p, Mvo [Baibako]

salma3

204 | 298

13.79 ГБ

В этой теме нет новых непрочитанных сообщений. Дух студента / School Spirit [Комедия, фэнтези, 1985] DVDRip, Avo

salma3

37 | 8

745.1 МБ

В этой теме нет новых непрочитанных сообщений. Страсть в пыли / Lust in the Dust [комедия, вестерн, 1985] DVDRip, Mvo

salma3

163 | 61

1.37 ГБ

В этой теме нет новых непрочитанных сообщений. Высокое небо / Поднебесье / Sky High [комедия, приключения, 1985] DVDRip, Avo

salma3

100 | 46

1.37 ГБ

В этой теме нет новых непрочитанных сообщений. Попался, или Шпионские игры / Gotcha! [Боевик, мелодрама, комедия, 1985] DVDRip-AVC, Dvo

salma3

107 | 15

2.02 ГБ

В этой теме нет новых непрочитанных сообщений. Миллион в брачной корзине [комедия, 1985] HDTVRip

salma3

11 | 1

1.45 ГБ


Начать новую тему Ответить на тему  [ 1 сообщение ] 




Для Мосгорсуда, Роскомнадзора и рекламодателей:: mosgorsud-torrent[собачка]yandex.ru
cron