Торрент файл
скачать торрент магнет ссылка Добавлен: 10 ноя 2017, 22:23
Размер: 1.37 ГБ
Сидеров: 127
Личеров: 23
Статус: (salma3)
Автор

СообщениеДобавлено: 10 ноя 2017, 22:23 

Не в сети
Супермодератор
Аватара пользователя
Дата регистрации:
15 фев 2012, 16:44
Возраст: 29
Спасибо: 7377 / 2147
Сообщения: 75818
Год выхода: 2017
Жанр: Криминал
Режиссер: Закари Адлер

В ролях: Крэйг Фэйрбрасс, Терри Стоун, Роланд Манукян, Джэми Формен, Джош Майерс, Эдди Веббер, Йен Вирго, Энди Беквит, Шон Райдер, Лаура МакМонэйгл и другие

О фильме:
Известный гангстер, Пэт Тэйл, решает заполучить господство чёрного рынка Эссекса. Огромные деньги от продажи наркотиков - что может быть лучше, но у этой игры тоже есть свои правила, а за их нарушение придётся поплатиться жизнью.



Страна: Великобритания, Carnaby International
Продолжительность: 01:39:54
Перевод: Любительский (двухголосый закадровый)[RecentFilms]

Файл
Кодек: XviD
Качество: WEBRip
Видео: 720x384, 23,976 fps, ~1762 Kbps, 0.27 bit/pixel
Аудио rus: AC3, 48 kHz, 2 ch, 192 Kbps

Реклама: присутствует

Семпл

General
Complete name : F:FilmsRise.of.the.Footsoldier.3.2017.WEBRip.RecentFilmsRise.of.the.Footsoldier.3.2017.WEBRip.RecentFilms.avi
Format : AVI
Format/Info : Audio Video Interleave
File size : 1.37 GiB
Duration : 1h 39mn
Overall bit rate : 1 964 Kbps
Writing application : VirtualDubMod 1.5.10.2 (build 2540/release)
Writing library : VirtualDubMod build 2540/release

Video
ID : 0
Format : MPEG-4 Visual
Format profile : Advanced Simple@L5
Format settings, BVOP : 1
Format settings, QPel : No
Format settings, GMC : No warppoints
Format settings, Matrix : Default (H.263)
Codec ID : XVID
Codec ID/Hint : XviD
Duration : 1h 39mn
Bit rate : 1 763 Kbps
Width : 720 pixels
Height : 384 pixels
Display aspect ratio : 1.85:1
Frame rate : 23.976 (24000/1001) fps
Color space : YUV
Chroma subsampling : 4:2:0
Bit depth : 8 bits
Scan type : Progressive
Compression mode : Lossy
Bits/(Pixel*Frame) : 0.266
Stream size : 1.23 GiB (90%)
Writing library : XviD 67

Audio
ID : 1
Format : AC-3
Format/Info : Audio Coding 3
Mode extension : CM (complete main)
Format settings, Endianness : Big
Codec ID : 2000
Duration : 1h 39mn
Bit rate mode : Constant
Bit rate : 192 Kbps
Channel(s) : 2 channels
Channel positions : Front: L R
Sampling rate : 48.0 KHz
Frame rate : 31.250 fps (1536 spf)
Compression mode : Lossy
Stream size : 137 MiB (10%)
Alignment : Split accross interleaves
Interleave, duration : 42 ms (1.00 video frame)
Interleave, preload duration : 500 ms



Релиз от: RecentFilms


_________________
Проголосуй за трекер Открытый торрент трекер - RUS-MEDIA.ORG

Проголосуй Открытый торрент трекер - RUS-MEDIA.ORG


Вернуться к началу
 Профиль Отправить личное сообщение  
 
   Похожие торренты   Автор   Торрент   Размер 
В этой теме нет новых непрочитанных сообщений. Восхождение пехотинца 3 / Rise of the Footsoldier 3 [Криминал, 2017] WEBRip 720p, Dvo

salma3

68 | 4

2.88 ГБ

В этой теме нет новых непрочитанных сообщений. Восхождение пехотинца 3 / Rise of the Footsoldier 3 [боевик, комедия, криминал, 2017] BDRip, Dvo

salma3

0 | 0

1.46 ГБ

В этой теме нет новых непрочитанных сообщений. Восхождение пехотинца 3 / Rise of the Footsoldier 3 [боевик, комедия, криминал, 2017] BDRemux 1080р, Avo

salma3

0 | 0

18.21 ГБ

В этой теме нет новых непрочитанных сообщений. Восхождение пехотинца. Часть II / Rise of the Footsoldier Part II [криминал, 2015] BDRip, AVO

salma3

199 | 43

1.46 ГБ

В этой теме нет новых непрочитанных сообщений. Царь скорпионов 2: Восхождение воина / The Scorpion King: Rise of a Warrior [фэнтези, боевик, приключения, 2008] BDRip 720р, Dub+Sub

salma3

0 | 0

4.25 ГБ

В этой теме нет новых непрочитанных сообщений. Samantha Rise - Private Lecture For Samantha (2010) WEBRip

salma3

22 | 2

435.54 МБ

В этой теме нет новых непрочитанных сообщений. Клеймо / The Marker [триллер, криминал, 2017] WEBRip, Mvo

salma3

379 | 172

1.23 ГБ


Начать новую тему Ответить на тему  [ 1 сообщение ] 




Для Мосгорсуда, Роскомнадзора и рекламодателей:: mosgorsud-torrent[собачка]yandex.ru
cron