Торрент файл
скачать торрент магнет ссылка Добавлен: 09 ноя 2017, 16:59
Размер: 1.77 ГБ
Сидеров: 368
Личеров: 95
Статус: (salma3)
Автор

СообщениеДобавлено: 09 ноя 2017, 16:59 

Не в сети
Супермодератор
Аватара пользователя
Дата регистрации:
15 фев 2012, 16:44
Возраст: 28
Спасибо: 6644 / 2146
Сообщения: 45843
Год выпуска: 2016
Жанр: Боевик, драма, биография
Режиссер: Джордж Нолфи

В ролях: Филип Нг, Ся Юй, Ван Сиань, Юй Хай, У Юэ, Билли Магнуссен, Стивен Холмс, Райли Вуд, Саймон Инь, Терри Чен

О фильме:
Вскоре после приезда в США молодой Брюс Ли открывает школу единоборств. Но известный мастер Вон Джак Мань вызывает юного Брюса на бой. Проигравшему придется закрыть свою школу.



Страна: Китай, Канада, США
Продолжительность: 01:31:33
Перевод: Дублированный iTunes

Файл
Качество: HDRip-AVC
Видео: 1024x428 (2.40:1), 23,976 fps, x264 ~1819 kbps avg, 0.174 bit/pixel
Аудио1: 48 kHz, AC3 Dolby Digital, 3/2 (L,C,R,l,r) + LFE ch, ~384.00 kbps avg | RUS (iTunes)
Аудио2: 48 kHz, AC3 Dolby Digital, 3/2 (L,C,R,l,r) + LFE ch, ~448.00 kbps avg | ENG

Общее
Уникальный идентификатор : 171902373035148216864645010156596273177 (0x81533159A264F81D93BF738AC0F0A019)
Полное имя : E:OlLanDGroupBirth.Of.The.Dragon.2016.HDRip(AVC).OlLanDGroup.mkv
Формат : Matroska
Версия формата : Version 2
Размер файла : 1,77 Гбайт
Продолжительность : 1 ч. 35 м.
Общий поток : 2646 Кбит/сек
Название фильма : Birth.Of.The.Dragon.2016 #TorpedoUK#
Дата кодирования : UTC 2017-11-09 10:57:12
Программа кодирования : mkvmerge v7.8.0 ('River Man') 32bit built on Apr 3 2015 12:11:22
Библиотека кодирования : libebml v1.3.1 + libmatroska v1.4.2

Видео
Идентификатор : 1
Формат : AVC
Формат/Информация : Advanced Video Codec
Профиль формата : High@L4.1
Параметр CABAC формата : Да
Параметр ReFrames формата : 10 кадров
Идентификатор кодека : V_MPEG4/ISO/AVC
Продолжительность : 1 ч. 35 м.
Битрейт : 1819 Кбит/сек
Ширина : 1024 пикселя
Высота : 426 пикселей
Соотношение сторон : 2,40:1
Режим частоты кадров : Постоянный
Частота кадров : 23,976 (24000/1001) кадра/сек
Цветовое пространство : YUV
Субдискретизация насыщенности : 4:2:0
Битовая глубина : 8 бит
Тип развёртки : Прогрессивная
Бит/(Пиксели*Кадры) : 0.174
Размер потока : 1,18 Гбайт (67%)
Библиотека кодирования : x264 core 146 r2538 121396c
Настройки программы : cabac=1 / ref=10 / deblock=1:-3:-3 / analyse=0x3:0x133 / me=umh / subme=11 / psy=1 / psy_rd=1.00:0.05 / mixed_ref=1 / me_range=48 / chroma_me=1 / trellis=2 / 8x8dct=1 / cqm=0 / deadzone=21,11 / fast_pskip=1 / chroma_qp_offset=-3 / threads=6 / lookahead_threads=1 / sliced_threads=0 / nr=0 / decimate=1 / interlaced=0 / bluray_compat=0 / constrained_intra=0 / bframes=10 / b_pyramid=2 / b_adapt=2 / b_bias=0 / direct=3 / weightb=1 / open_gop=0 / weightp=2 / keyint=240 / keyint_min=23 / scenecut=40 / intra_refresh=0 / rc_lookahead=40 / rc=2pass / mbtree=0 / bitrate=1819 / ratetol=1.0 / qcomp=0.60 / qpmin=0 / qpmax=69 / qpstep=4 / cplxblur=20.0 / qblur=0.5 / vbv_maxrate=50000 / vbv_bufsize=62500 / nal_hrd=none / filler=0 / ip_ratio=1.40 / pb_ratio=1.30 / aq=1:1.00
Язык : English
Default : Да
Forced : Нет

Аудио #1
Идентификатор : 2
Формат : AC-3
Формат/Информация : Audio Coding 3
Расширение режима : CM (complete main)
Параметр Endianness формата : Big
Идентификатор кодека : A_AC3
Продолжительность : 1 ч. 35 м.
Вид битрейта : Постоянный
Битрейт : 384 Кбит/сек
Каналы : 6 каналов
Расположение каналов : Front: L C R, Side: L R, LFE
Частота : 48,0 КГц
Частота кадров : 31,250 кадров/сек (1536 spf)
Битовая глубина : 16 бит
Метод сжатия : С потерями
Размер потока : 263 Мбайт (15%)
Заголовок : iTunes
Язык : Russian
Default : Да
Forced : Нет

Аудио #2
Идентификатор : 3
Формат : AC-3
Формат/Информация : Audio Coding 3
Расширение режима : CM (complete main)
Параметр Endianness формата : Big
Идентификатор кодека : A_AC3
Продолжительность : 1 ч. 35 м.
Вид битрейта : Постоянный
Битрейт : 448 Кбит/сек
Каналы : 6 каналов
Расположение каналов : Front: L C R, Side: L R, LFE
Частота : 48,0 КГц
Частота кадров : 31,250 кадров/сек (1536 spf)
Битовая глубина : 16 бит
Метод сжатия : С потерями
Размер потока : 306 Мбайт (17%)
Заголовок : Original
Язык : English
Default : Нет
Forced : Нет

Текст
Идентификатор : 4
Формат : UTF-8
Идентификатор кодека : S_TEXT/UTF8
Идентификатор кодека/Информация : UTF-8 Plain Text
Заголовок : SDH
Язык : English
Default : Нет
Forced : Нет





Релиз от: Rip by:


_________________
Проголосуй за трекер Открытый торрент трекер - RUS-MEDIA.ORG

Проголосуй Открытый торрент трекер - RUS-MEDIA.ORG



реклама партнёра


Вернуться к началу
 Профиль Отправить личное сообщение  
 
   Похожие торренты   Автор   Торрент   Размер 
В этой теме нет новых непрочитанных сообщений. Брюс Ли: Рождение Дракона / Birth of the Dragon [боевик, драма, биография, 2016] WEB-DLRip-AVC, Dub [iTunes]

salma3

446 | 42

744.82 МБ

В этой теме нет новых непрочитанных сообщений. Брюс Ли: Рождение Дракона / Birth of the Dragon [Боевик, драма, биография, 2016] WEB-DLRip, Dub [iTunes]

salma3

4156 | 727

1.46 ГБ

В этой теме нет новых непрочитанных сообщений. Брюс Ли: Рождение Дракона / Birth of the Dragon [боевик, драма, биография, 2016] WEB-DLRip-AVC, Dub [iTunes]

salma3

387 | 39

1.9 ГБ

В этой теме нет новых непрочитанных сообщений. Брюс Ли: Рождение Дракона / Birth of the Dragon [боевик, драма, биография, 2016] WEB-DL 1080p, Dub [iTunes]

salma3

1854 | 233

3.18 ГБ

В этой теме нет новых непрочитанных сообщений. Рождение нации / The Birth of a Nation [драма, биография, история, 2016] BDRip, Mvo+Sub [iTunes]

salma3

0 | 0

2.13 ГБ

В этой теме нет новых непрочитанных сообщений. Рождение нации / The Birth of a Nation [драма, биография, история, 2016] HDRip, Mvo

salma3

274 | 87

2.05 ГБ

В этой теме нет новых непрочитанных сообщений. Рождение нации / The Birth of a Nation [драма, биография, история, 2016] BDRip 720p, Mvo

salma3

222 | 85

5.05 ГБ


Начать новую тему Ответить на тему  [ 1 сообщение ] 




Для Мосгорсуда, Роскомнадзора и рекламодателей:: mosgorsud-torrent[собачка]yandex.ru