Торрент файл
скачать торрент магнет ссылка Добавлен: 16 апр 2011, 19:46
Размер: 2.18 ГБ
Сидеров: 7
Личеров: 3
Автор

СообщениеДобавлено: 16 апр 2011, 19:46 

Не в сети
Супермодератор
Аватара пользователя
Дата регистрации:
22 май 2010, 11:03
Возраст: 32
Спасибо: 7690 / 13
Сообщения: 49871
Война / War




[b]Перевод: Профессиональный (полное дублирование)[/b], Субтитры: Русские,Английские

Формат: HDRip, AVI, XViD, AC3
Страна: США
Режиссер: Филлип Дж. Этвелл / Phillip G. Atwell
Жанр: боевик, триллер
Продолжительность: 01:43:00
Год выпуска: 2007

В ролях: Джет Ли (Jet Li), Джейсон Стэтхэм (Jason Statham), Джон Лоун (John Lone), Девон Аоки (Devon Aoki), Луис Гузман (Luis Guzman), Сол Рубинек (Saul Rubinek)

Описание: Уже долгое время полиция не может поймать циничного и беспощадного убийцу. Киллер экстра-класса, о чьей жестокости ходят легенды даже в криминальном мире, практически неуязвим. Играючи, он выскальзывает из какой угодно ловушки и уходит от любой погони, оставляя за собой горы трупов. Агент ФБР Джек Кроуфорд принимает участие в расследовании. Потеряв напарника в одной из схваток с убийцей, он преследует только одну цель - уничтожить неуловимого киллера!

Рейтинг Кинопоиск.RU: 6.963
Рейтинг IMDB: 6.2/10
Рейтинг MPAA: R

Видео: 720x304 (2.37:1), 23.976 fps, XviD build 47 ~1861 kbps avg, 0.355 bit/pixel
Аудио#1: Русский:
48 kHz, AC3 Dolby Digital, 3/2 (L,C,R,l,r) + LFE ch, ~384.00 kbps avg[Полное дублирование]
Аудио#2: Русский:48 kHz, AC3 Dolby Digital, 3/2 (L,C,R,l,r) + LFE ch, ~384.00 kbps avg[Авторский-Живов]
Аудио#3: Английский:48 kHz, AC3 Dolby Digital, 3/2 (L,C,R,l,r) + LFE ch, ~384.00 kbps avg[Оригинал]



*Рабочее название фильма «Rogue» было изменено, чтобы не вызвать проблем с другим фильмом под аналогичным названием. В Сингапуре фильм был назван «Rogue Assassin».
* Стетхэм сразу подтвердил свое намерение участвовать в проекте. На это решение повлияло имя Джета Ли, с которым Джейсон уже работал ранее.
General
Complete name: E:\Кино\БОЕВИКИ\War\Vojna.2007.RUS.HDRip.XviD.AC3.-xVIRUSx.avi
Format: AVI
Format/Info: Audio Video Interleave
Format profile: OpenDML
File size: 2.18 GiB
Duration: 1h 43mn
Overall bit rate: 3 036 Kbps
Writing application: VirtualDubMod 1.5.10.2 (build 2540/release)
Writing library: VirtualDubMod build 2540/release

Video
ID: 0
Format: MPEG-4 Visual
Format profile: Advanced Simple@L5
Format settings, BVOP: Yes
Format settings, QPel: No
Format settings, GMC: No warppoints
Format settings, Matrix: Custom
Codec ID: XVID
Codec ID/Hint: XviD
Duration: 1h 43mn
Bit rate: 1 861 Kbps
Width: 720 pixels
Height: 304 pixels
Display aspect ratio: 2.35:1
Frame rate: 23.976 fps
Color space: YUV
Chroma subsampling: 4:2:0
Bit depth: 8 bits
Scan type: Progressive
Bits/(Pixel*Frame): 0.355
Stream size: 1.34 GiB (61%)
Writing library: XviD 1.2.0.dev47 (UTC 2006-11-01)

Audio #1
ID: 1
Format: AC-3
Format/Info: Audio Coding 3
Mode extension: CM (complete main)
Codec ID: 2000
Duration: 1h 42mn
Bit rate mode: Constant
Bit rate: 384 Kbps
Channel(s): 6 channels
Channel positions: Front: L C R, Side: L R, LFE
Sampling rate: 48.0 KHz
Stream size: 283 MiB (13%)
Alignment: Split accross interleaves
Interleave, duration: 42 ms (1.00 video frame)
Interleave, preload duration: 500 ms

Audio #2
ID: 2
Format: AC-3
Format/Info: Audio Coding 3
Mode extension: CM (complete main)
Codec ID: 2000
Duration: 1h 42mn
Bit rate mode: Constant
Bit rate: 384 Kbps
Channel(s): 6 channels
Channel positions: Front: L C R, Side: L R, LFE
Sampling rate: 48.0 KHz
Video delay: 27ms
Stream size: 283 MiB (13%)
Alignment: Split accross interleaves
Interleave, duration: 42 ms (1.00 video frame)
Interleave, preload duration: 500 ms

Audio #3
ID: 3
Format: AC-3
Format/Info: Audio Coding 3
Mode extension: CM (complete main)
Codec ID: 2000
Duration: 1h 43mn
Bit rate mode: Constant
Bit rate: 384 Kbps
Channel(s): 6 channels
Channel positions: Front: L C R, Side: L R, LFE
Sampling rate: 48.0 KHz
Stream size: 283 MiB (13%)
Alignment: Split accross interleaves
Interleave, duration: 42 ms (1.00 video frame)
Interleave, preload duration: 500 ms












реклама партнёра


Вернуться к началу
 Профиль Отправить личное сообщение  
 
   Похожие торренты   Автор   Торрент   Размер 
В этой теме нет новых непрочитанных сообщений. Я люблю тебя, Филлип Моррис / I Love You Phillip Morris (Гленн Фикарра, Джон Рекуа) [2008, драма, мелодрама, комедия, BDRip 720] Dub

Nickolas3435

110 | 8

2.81 ГБ

В этой теме нет новых непрочитанных сообщений. Война динозавров / D-War [ужасы, фэнтези, боевик, триллер, драма, 2007] BDRip, Dub

salma3

36 | 3

1.45 ГБ

В этой теме нет новых непрочитанных сообщений. Война Дронов / Drone Wars [фантастика, боевик, триллер, 2016] HDRip, Mvo

salma3

2083 | 582

1.37 ГБ

В этой теме нет новых непрочитанных сообщений. Планета обезьян: Война / War for the Planet of the Apes [фантастика, боевик, триллер, 2017] HDRip-AVC, Dub [iTunes]

salma3

578 | 56

2.11 ГБ

В этой теме нет новых непрочитанных сообщений. Планета обезьян: Война / War for the Planet of the Apes [фантастика, боевик, триллер, 2017] HDRip, Dub [iTunes]

salma3

14251 | 5963

1.46 ГБ

В этой теме нет новых непрочитанных сообщений. Война / War [Боевик, 2007] BDRemux 1080p, Dub

salma3

5 | 5

23.62 ГБ

В этой теме нет новых непрочитанных сообщений. Война / Man Down [триллер, драма, 2016] HDRip, Mvo

salma3

6983 | 729

1.37 ГБ


Начать новую тему Ответить на тему  [ 1 сообщение ] 




Для Мосгорсуда, Роскомнадзора и рекламодателей:: mosgorsud-torrent[собачка]yandex.ru