Торрент файл
скачать торрент магнет ссылка Добавлен: 08 ноя 2017, 21:33
Размер: 1.19 ГБ
Сидеров: 0
Личеров: 0
Статус: (salma3)
Автор

СообщениеДобавлено: 08 ноя 2017, 21:33 

Не в сети
Супермодератор
Аватара пользователя
Дата регистрации:
15 фев 2012, 16:44
Возраст: 28
Спасибо: 6643 / 2146
Сообщения: 45809
Год выхода: 2016
Жанр: Триллер, драма, криминал
Режиссер: Дэвид Гульельмо

В ролях: Фрея Тингли, Том Уильямсон, Пол Рэй, Тимоти В. Мерфи, Джастин Арнольд, Райан Харпер Грэй, Рой Фрамкес, Рой Аллен III, Жослин Андерсон, Симон Бэйкер и другие

О фильме:
Эта история разворачивается в 50-х годах. Межрассовая пара подростков совершают грабёж и сбегают из свого гнетущего города. Но все обернулось так, что они вынужены встретиться лицом к лицу со своими тёмными секретами.



Страна: США, Modernciné
Продолжительность: 01:25:20
Перевод: Любительский (двухголосый закадровый) | RecentFilms

Файл
Кодек: XviD
Качество: WEBRip
Видео: 720x304 , 23,976 fps, ~1804 Kbps, 0.34 bit/pixel
Аудио rus: AC3, 48 kHz, 2 ch, 192 Kbps

Реклама: присутствует

Семпл

General
Complete name : F:FilmsNo.Way.to.Live.2016.WEBRip.RecentFilmsNo.Way.to.Live.2016.WEBRip.RecentFilms.avi
Format : AVI
Format/Info : Audio Video Interleave
Format profile : OpenDML
File size : 1.19 GiB
Duration : 1h 25mn
Overall bit rate : 2 004 Kbps
Writing application : Lavf57.71.100

Video
ID : 0
Format : MPEG-4 Visual
Format profile : Advanced Simple@L5
Format settings, BVOP : 1
Format settings, QPel : No
Format settings, GMC : No warppoints
Format settings, Matrix : Default (H.263)
Codec ID : XVID
Codec ID/Hint : XviD
Duration : 1h 25mn
Bit rate : 1 799 Kbps
Width : 720 pixels
Height : 304 pixels
Display aspect ratio : 2.40:1
Frame rate : 23.976 (24000/1001) fps
Color space : YUV
Chroma subsampling : 4:2:0
Bit depth : 8 bits
Scan type : Progressive
Compression mode : Lossy
Bits/(Pixel*Frame) : 0.343
Stream size : 1.07 GiB (90%)
Writing library : XviD 67

Audio
ID : 1
Format : AC-3
Format/Info : Audio Coding 3
Mode extension : CM (complete main)
Format settings, Endianness : Big
Codec ID : 2000
Duration : 1h 25mn
Bit rate mode : Constant
Bit rate : 192 Kbps
Channel(s) : 2 channels
Channel positions : Front: L R
Sampling rate : 48.0 KHz
Frame rate : 31.250 fps (1536 spf)
Bit depth : 16 bits
Compression mode : Lossy
Stream size : 117 MiB (10%)
Alignment : Aligned on interleaves
Interleave, duration : 32 ms (0.77 video frame)



Релиз от: RecentFilms


_________________
Проголосуй за трекер Открытый торрент трекер - RUS-MEDIA.ORG

Проголосуй Открытый торрент трекер - RUS-MEDIA.ORG



реклама партнёра


Вернуться к началу
 Профиль Отправить личное сообщение  
 
   Похожие торренты   Автор   Торрент   Размер 
В этой теме нет новых непрочитанных сообщений. Так жить нельзя / No Way to Live [Триллер, драма, криминал, 2016] WEBRip 1080p, Dvo

salma3

16 | 0

3.63 ГБ

В этой теме нет новых непрочитанных сообщений. Жить и умереть в Лос-Анджелесе / To Live and Die in L.A. [боевик, триллер, драма, криминал, 1985] HDRip, Avo [Гаврилов]

salma3

24 | 1

1.45 ГБ

В этой теме нет новых непрочитанных сообщений. Жить и умереть в Лос-Анджелесе / To Live and Die in L.A. [боевик, триллер, драма, криминал, 1985] BDRip 1080p, Mvo

salma3

49 | 13

12.39 ГБ

В этой теме нет новых непрочитанных сообщений. Инферно / Inferno (боевик, триллер, драма, криминал, детектив, 2016) WEBRip | Line

marya111

3094 | 146

1.37 ГБ

В этой теме нет новых непрочитанных сообщений. Случай в Кеттеринге / The Kettering Incident [S01] [триллер, драма, криминал, детектив, 2016] WEBRip, dvo HamsterStudio]

marya111

26 | 1

5.1 ГБ

В этой теме нет новых непрочитанных сообщений. Город тусклых огней / City of Tiny Lights [триллер, драма, криминал, 2016] WEBRip, Mvo

salma3

271 | 71

1.37 ГБ

В этой теме нет новых непрочитанных сообщений. Дорога Черной Смолы / Black Tar Road [триллер, драма, криминал, биография, 2016] WEBRip, Mvo

salma3

606 | 155

1.37 ГБ


Начать новую тему Ответить на тему  [ 1 сообщение ] 




Для Мосгорсуда, Роскомнадзора и рекламодателей:: mosgorsud-torrent[собачка]yandex.ru