Торрент файл
скачать торрент магнет ссылка Добавлен: 07 ноя 2017, 12:23
Размер: 746.08 МБ
Сидеров: 24
Личеров: 5
Статус: (salma3)
Автор

СообщениеДобавлено: 07 ноя 2017, 12:23 

В сети
Супермодератор
Аватара пользователя
Дата регистрации:
15 фев 2012, 16:44
Возраст: 28
Спасибо: 7199 / 2147
Сообщения: 64793
Год выхода: 1994
Жанр: ужасы, фэнтези, комедия
Режиссер: Родмен Флендер

В ролях: Уорвик Дэвис. Чарли Хит, Шивонн Деркин, Сэнди Бэрон, Эдам Биск, Джеймс Ланкастер, Линда Хопкинс, Артуро Джил, Кимми Робертсон, Клинт Ховард

О фильме :
Время лечит раны, но не стирает обиды. Злой и кровожадный гном Лепрекон, хранитель подземных запасов золота, которого не берут ни пуля, ни огонь, ни яд, вновь выходит из подземелья и в поисках наследника своего заклятого врага продолжает смертельную жатву, уничтожая всех, кто покушается на принадлежащие ему, Лепрекону, сокровища. Пусть и прошла тысяча лет после нанесенной Лепрекону обиды - он ничего и никогда не прощает!.. К тому же он теперь одержим еще одной мечтой: Лепрекон хочет жениться, и в поисках невесты карлик-убийца не останавливается ни перед чем...



Выпущено: США
Продолжительность: 01:25:24
Перевод: Профессиональный (многоголосый закадровый) R5

Файл
Формат: MKV
Качество: HDRip-AVC
Видео: MPEG-4 AVC, 736x416, ~ 1144 Кбит/с
Аудио: AAC-LC, 2 ch, ~ 76 Кбит/с
Субтитры: Русские, английские

Общее
Уникальный идентификатор : 254794423243651248013357836218275886053 (0xBFAF9EF5D812D4F7967F1000942E73E5)
Полное имя : D:MOVIESLeprechaun 2.1994.ExKinoRay.mkv
Формат : Matroska
Версия формата : Version 4 / Version 2
Размер файла : 746 Мбайт
Продолжительность : 1 ч. 25 м.
Общий поток : 1221 Кбит/сек
Дата кодирования : UTC 2017-11-07 06:45:30
Программа кодирования : mkvmerge v15.0.0 ('Duel with the Devil') 64-bit
Библиотека кодирования : libebml v1.3.5 + libmatroska v1.4.5

Видео
Идентификатор : 1
Формат : AVC
Формат/Информация : Advanced Video Codec
Профиль формата : High@L4.1
Параметр CABAC формата : Да
Параметр RefFrames формата : 10 кадров
Идентификатор кодека : V_MPEG4/ISO/AVC
Продолжительность : 1 ч. 25 м.
Битрейт : 1144 Кбит/сек
Ширина : 736 пикселей
Высота : 416 пикселей
Соотношение сторон : 16:9
Режим частоты кадров : Постоянный
Частота кадров : 23,976 (24000/1001) кадра/сек
Цветовое пространство : YUV
Субдискретизация насыщенности : 4:2:0
Битовая глубина : 8 бит
Тип развёртки : Прогрессивная
Бит/(Пиксели*Кадры) : 0.156
Размер потока : 698 Мбайт (94%)
Библиотека кодирования : x264 core 152 r2851kMod ba24899
Настройки программы : cabac=1 / ref=10 / deblock=1:-3:-3 / analyse=0x3:0x133 / me=umh / subme=11 / psy=1 / fade_compensate=0.00 / psy_rd=1.00:0.05 / mixed_ref=1 / me_range=32 / chroma_me=1 / trellis=2 / 8x8dct=1 / cqm=0 / deadzone=21,11 / fast_pskip=0 / chroma_qp_offset=-3 / threads=6 / lookahead_threads=1 / sliced_threads=0 / nr=0 / decimate=0 / interlaced=0 / bluray_compat=0 / constrained_intra=0 / bframes=10 / b_pyramid=2 / b_adapt=2 / b_bias=0 / direct=3 / weightb=1 / open_gop=0 / weightp=2 / keyint=240 / keyint_min=23 / scenecut=40 / intra_refresh=0 / rc_lookahead=40 / rc=2pass / mbtree=1 / bitrate=1144 / ratetol=1.0 / qcomp=0.60 / qpmin=0 / qpmax=69 / qpstep=4 / cplxblur=20.0 / qblur=0.5 / vbv_maxrate=50000 / vbv_bufsize=62500 / nal_hrd=none / filler=0 / ip_ratio=1.40 / aq=3:1.00
Default : Да
Forced : Нет

Аудио
Идентификатор : 2
Формат : AAC
Формат/Информация : Advanced Audio Codec
Профиль формата : LC
Идентификатор кодека : A_AAC
Продолжительность : 1 ч. 25 м.
Битрейт : 76,0 Кбит/сек
Каналы : 2 канала
Расположение каналов : Front: L R
Частота : 48,0 КГц
Частота кадров : 46,875 кадров/сек (1024 SPF)
Метод сжатия : С потерями
Задержка видео : 9 мс.
Размер потока : 46,4 Мбайт (6%)
Default : Да
Forced : Нет

Текст #1
Идентификатор : 3
Формат : UTF-8
Идентификатор кодека : S_TEXT/UTF8
Идентификатор кодека/Информация : UTF-8 Plain Text
Продолжительность : 44 м. 25 с.
Битрейт : 79 бит/сек
ElementCount : 538
Размер потока : 25,8 Кбайт (0%)
Язык : Russian
Default : Нет
Forced : Нет

Текст #2
Идентификатор : 4
Формат : UTF-8
Идентификатор кодека : S_TEXT/UTF8
Идентификатор кодека/Информация : UTF-8 Plain Text
Продолжительность : 1 ч. 21 м.
Битрейт : 55 бит/сек
ElementCount : 1117
Размер потока : 33,3 Кбайт (0%)
Язык : English
Default : Нет
Forced : Нет

Меню
00:00:00.000 : en:Chapter 01
00:08:28.090 : en:Chapter 02
00:16:13.222 : en:Chapter 03
00:24:00.689 : en:Chapter 04
00:30:09.933 : en:Chapter 05
00:37:19.278 : en:Chapter 06
00:44:15.402 : en:Chapter 07
00:53:12.856 : en:Chapter 08
00:59:07.794 : en:Chapter 09
01:11:34.665 : en:Chapter 10
01:17:21.970 : en:Chapter 11
01:22:23.188 : en:Chapter 12




Релиз от:


_________________
Проголосуй за трекер Открытый торрент трекер - RUS-MEDIA.ORG

Проголосуй Открытый торрент трекер - RUS-MEDIA.ORG


Вернуться к началу
 Профиль Отправить личное сообщение  
 
   Похожие торренты   Автор   Торрент   Размер 
В этой теме нет новых непрочитанных сообщений. Лепрекон 2: Одна свадьба и много похорон / Leprechaun 2 [ужасы, фэнтези, комедия, 1994] BDRip, Mvo

salma3

26 | 7

1.45 ГБ

В этой теме нет новых непрочитанных сообщений. Лепрекон / Leprechaun [ужасы, фэнтези, комедия, 1993] BDRip, Mvo

salma3

24 | 6

1.45 ГБ

В этой теме нет новых непрочитанных сообщений. Лепрекон 3: Приключения в Лас-Вегасе / Leprechaun 3 [ужасы, фэнтези, комедия, 1995] BDRip, Mvo

salma3

23 | 4

1.45 ГБ

В этой теме нет новых непрочитанных сообщений. Лепрекон 6: Домой / Leprechaun: Back 2 tha Hood [ужасы, фэнтези, комедия, 2003] BDRip, Dvo

salma3

24 | 4

1.45 ГБ

В этой теме нет новых непрочитанных сообщений. Лепрекон 5: Сосед / Leprechaun in the Hood [ужасы, фэнтези, боевик, комедия, 2000] BDRip, Dvo

salma3

17 | 4

1.45 ГБ

В этой теме нет новых непрочитанных сообщений. Лепрекон 4: В космосе / Leprechaun 4: In Space [ужасы, фантастика, комедия, 1996] BDRip, Mvo

salma3

13 | 2

1.45 ГБ

В этой теме нет новых непрочитанных сообщений. Свадьба Мюриэль / Muriel's Wedding [Комедия, 1994] BDRip 1080p, Dvo

salma3

42 | 29

7.7 ГБ


Начать новую тему Ответить на тему  [ 1 сообщение ] 




Для Мосгорсуда, Роскомнадзора и рекламодателей:: mosgorsud-torrent[собачка]yandex.ru
cron