Торрент файл
скачать торрент магнет ссылка Добавлен: 06 ноя 2017, 12:42
Размер: 1.18 ГБ
Сидеров: 110
Личеров: 14
Статус: (salma3)
Автор

СообщениеДобавлено: 06 ноя 2017, 12:42 

Не в сети
Супермодератор
Аватара пользователя
Дата регистрации:
15 фев 2012, 16:44
Возраст: 30
Спасибо: 8093 / 2147
Сообщения: 92221
Год выхода: 2017
Жанр: Драма, мелодрама
Режиссер: Дэвид Уиннинг

В ролях: Джули Гонсало, Бенджамин Эйрс, Лорен МакНамара, Питер Бенсон, Барбара Коттмейер, Ларисса Альбукерке, Марк Брэндон, Ава Грэйс Купер, Дин Петрив,
Кристиан Майкл Купер и другие.

О фильме:
Популярная писательница решает сбежать от назойливой прессы, но её план рушится, когда из-за урагана она попадает в аварию и теряет память. Когда шериф находит её на дороге одну и без документов, местный врач (и по совместительству отец-одиночка) соглашается приютить героиню, пока к ней не вернётся память. Она настолько привыкает к своей новой семье, что ей приходится переосмыслить свою прошлую жизнь.



Страна: США, Канада, Hallmark Channel, The
Продолжительность: 01:24:22
Перевод: Любительский (двухголосый закадровый)[RecentFilms]

Файл
Кодек: XviD
Качество: HDTVRip
Видео: 720x400, 23,976 fps, ~1805 Kbps, 0.26 bit/pixel
Аудио rus: AC3, 48 kHz, 2 ch, 192 Kbps

Реклама: присутствует

Семпл

General
Complete name : F:FilmsFalling.for.Vermont.2017.HDTVRip.RecentFilmsFalling.for.Vermont.2017.HDTVRip.RecentFilms.avi
Format : AVI
Format/Info : Audio Video Interleave
Format profile : OpenDML
File size : 1.18 GiB
Duration : 1h 24mn
Overall bit rate : 2 004 Kbps
Writing application : Lavf57.71.100

Video
ID : 0
Format : MPEG-4 Visual
Format profile : Advanced Simple@L5
Format settings, BVOP : 1
Format settings, QPel : No
Format settings, GMC : No warppoints
Format settings, Matrix : Default (H.263)
Codec ID : XVID
Codec ID/Hint : XviD
Duration : 1h 24mn
Bit rate : 1 799 Kbps
Width : 720 pixels
Height : 400 pixels
Display aspect ratio : 16:9
Frame rate : 23.976 (24000/1001) fps
Color space : YUV
Chroma subsampling : 4:2:0
Bit depth : 8 bits
Scan type : Progressive
Compression mode : Lossy
Bits/(Pixel*Frame) : 0.261
Stream size : 1.06 GiB (90%)
Writing library : XviD 67

Audio
ID : 1
Format : AC-3
Format/Info : Audio Coding 3
Mode extension : CM (complete main)
Format settings, Endianness : Big
Codec ID : 2000
Duration : 1h 24mn
Bit rate mode : Constant
Bit rate : 192 Kbps
Channel(s) : 2 channels
Channel positions : Front: L R
Sampling rate : 48.0 KHz
Frame rate : 31.250 fps (1536 spf)
Bit depth : 16 bits
Compression mode : Lossy
Stream size : 116 MiB (10%)
Alignment : Aligned on interleaves
Interleave, duration : 32 ms (0.77 video frame)



Релиз от: RecentFilms


_________________
Проголосуй за трекер Открытый торрент трекер - RUS-MEDIA.ORG

Проголосуй Открытый торрент трекер - RUS-MEDIA.ORG


Книжный торрент трекер



Вернуться к началу
 Профиль Отправить личное сообщение  
 
   Похожие торренты   Автор   Торрент   Размер 
В этой теме нет новых непрочитанных сообщений. Влюбиться в Вермонт / Falling for Vermont [драма, мелодрама, 2017] HDTVRip, Mvo [Fox Life]

salma3

0 | 0

1.47 ГБ

В этой теме нет новых непрочитанных сообщений. Невозможно не влюбиться / Can't Help Falling in Love [мелодрама, 2017] WEBDLRip, Mvo

salma3

23 | 21

1.37 ГБ

В этой теме нет новых непрочитанных сообщений. Невозможно не влюбиться / Can't Help Falling in Love [мелодрама, 2017] WEBRip, Mvo [GreenРай Studio]

salma3

37 | 24

1.37 ГБ

В этой теме нет новых непрочитанных сообщений. Падающая вода / Falling Water [S02] [Ужасы, 2018] HDTVRip, Mvo [ColdFilm]

salma3

0 | 0

4.04 ГБ

В этой теме нет новых непрочитанных сообщений. Падающая вода / Falling Water [S02] [Ужасы, 2018] HDTVRip 720p, Mvo [ColdFilm]

salma3

0 | 1

12.19 ГБ

В этой теме нет новых непрочитанных сообщений. [UltraFilms.com] Paula Shy (Falling In Love Feels Great / 2017-09-03) [2017 г., Blowjob, Redhead, Big Boobs, Pussy Licking, Shaved, Cheating, Threesome, Hardcore, 2160p]

salma3

7 | 2

3.61 ГБ

В этой теме нет новых непрочитанных сообщений. Противостояние [01-04 из 04] [Мелодрама, драма, 2017] HDTVRip

salma3

9 | 14

2.17 ГБ


Начать новую тему Ответить на тему  [ 1 сообщение ] 




Для Мосгорсуда, Роскомнадзора и рекламодателей:: mosgorsud-torrent[собачка]yandex.ru
cron