COVID-19 - Последняя информация о коронавирусе на сайте Минздрава




Торрент файл
скачать торрент магнет ссылка Добавлен: 05 ноя 2017, 12:57
Размер: 744.65 МБ
Сидеров: 244
Личеров: 34
Статус: (salma3)
Автор

СообщениеДобавлено: 05 ноя 2017, 12:57 

Не в сети
Супермодератор
Аватара пользователя
Дата регистрации:
15 фев 2012, 16:44
Возраст: 30
Спасибо: 8262 / 2148
Сообщения: 96145
Год выхода: 2010
Жанр: Боевик, триллер, криминал
Режиссер: Фред Кавайе

В ролях: Жилль Лелуш, Рошди Зем, Жерар Ланвен, Елена Анайя, Мирей Перье, Клер Перо

О фильме :
Сэмюэль Перрье работает мед братом в больнице и привык ежедневно спасать жизни людей. Однажды в больницу привозят пациента, которого сбил мотоцикл. Парень находится в тяжелом состоянии, но ему удалось выжить. Вскоре Сэмюэль замечает в палате нового пациента человека, который пытается его убить. Даже не раздумывая, отчаянный мед брат бросается спасать беспомощного парня. Однако, оказалось, что своими действиями он теперь стал частью серьезных преступных разборок. На следующий день беременную жену Сэмюэля похищают бандиты, ставя перед ним условие. Главному герою предстоит вывести из больницы их человека, а если он этого не сделает, то его жена погибнет. Для Сэмюэля начинается смертельная гонка на выживание.



Страна: Франция / LGM Productions, Gaumont, TF1 Films Production
Продолжительность: 01:24:01
Перевод: Профессиональный (многоголосый, закадровый) - [лицензия R5]

Файл
Формат: MKV
Качество: HDRip-AVC
Видео: MPEG-4 AVC, 768x328, ~ 1163 Кбит/с
Аудио: AAC-LC, 2 ch, ~ 80 Кбит/с
Субтитры: Русские

Общее
Уникальный идентификатор : 176004145233682016048765161988607298201 (0x84692A554E9D22E19A4BB627ED51CA99)
Полное имя : D:MOVIESTri chasa na pobeg.2010.ExKinoRay.mkv
Формат : Matroska
Версия формата : Version 4 / Version 2
Размер файла : 745 Мбайт
Продолжительность : 1 ч. 24 м.
Общий поток : 1238 Кбит/сек
Дата кодирования : UTC 2017-11-04 19:33:04
Программа кодирования : mkvmerge v15.0.0 ('Duel with the Devil') 64-bit
Библиотека кодирования : libebml v1.3.5 + libmatroska v1.4.5

Видео
Идентификатор : 1
Формат : AVC
Формат/Информация : Advanced Video Codec
Профиль формата : High@L4.1
Параметр CABAC формата : Да
Параметр RefFrames формата : 10 кадров
Идентификатор кодека : V_MPEG4/ISO/AVC
Продолжительность : 1 ч. 24 м.
Битрейт : 1163 Кбит/сек
Ширина : 768 пикселей
Высота : 328 пикселей
Соотношение сторон : 2,35:1
Режим частоты кадров : Постоянный
Частота кадров : 24,000 кадра/сек
Цветовое пространство : YUV
Субдискретизация насыщенности : 4:2:0
Битовая глубина : 8 бит
Тип развёртки : Прогрессивная
Бит/(Пиксели*Кадры) : 0.192
Размер потока : 695 Мбайт (93%)
Библиотека кодирования : x264 core 152 r2851 ba24899
Настройки программы : cabac=1 / ref=10 / deblock=1:-3:-2 / analyse=0x3:0x133 / me=umh / subme=11 / psy=1 / psy_rd=1.00:0.15 / mixed_ref=1 / me_range=32 / chroma_me=1 / trellis=2 / 8x8dct=1 / cqm=0 / deadzone=21,11 / fast_pskip=0 / chroma_qp_offset=-3 / threads=6 / lookahead_threads=1 / sliced_threads=0 / nr=0 / decimate=0 / interlaced=0 / bluray_compat=0 / constrained_intra=0 / bframes=10 / b_pyramid=2 / b_adapt=2 / b_bias=0 / direct=3 / weightb=1 / open_gop=0 / weightp=2 / keyint=240 / keyint_min=23 / scenecut=40 / intra_refresh=0 / rc_lookahead=40 / rc=2pass / mbtree=0 / bitrate=1163 / ratetol=1.0 / qcomp=0.60 / qpmin=0 / qpmax=69 / qpstep=4 / cplxblur=20.0 / qblur=0.5 / vbv_maxrate=50000 / vbv_bufsize=62500 / nal_hrd=none / filler=0 / ip_ratio=1.40 / pb_ratio=1.30 / aq=1:1.00
Default : Да
Forced : Нет

Аудио
Идентификатор : 2
Формат : AAC
Формат/Информация : Advanced Audio Codec
Профиль формата : LC
Идентификатор кодека : A_AAC
Продолжительность : 1 ч. 24 м.
Битрейт : 80,0 Кбит/сек
Каналы : 2 канала
Расположение каналов : Front: L R
Частота : 48,0 КГц
Частота кадров : 46,875 кадров/сек (1024 SPF)
Метод сжатия : С потерями
Задержка видео : 9 мс.
Размер потока : 48,1 Мбайт (6%)
Default : Да
Forced : Нет

Текст
Идентификатор : 3
Формат : UTF-8
Идентификатор кодека : S_TEXT/UTF8
Идентификатор кодека/Информация : UTF-8 Plain Text
Продолжительность : 1 ч. 17 м.
Битрейт : 48 бит/сек
ElementCount : 629
Размер потока : 27,3 Кбайт (0%)
Заголовок : Russian
Язык : Russian
Default : Нет
Forced : Нет

Меню
00:00:00.000 : en:00:00:00.000
00:05:00.000 : en:00:05:00.000
00:10:00.000 : en:00:10:00.000
00:15:00.000 : en:00:15:00.000
00:20:00.000 : en:00:20:00.000
00:25:00.000 : en:00:25:00.000
00:30:00.000 : en:00:30:00.000
00:35:00.000 : en:00:35:00.000
00:40:00.000 : en:00:40:00.000
00:45:00.000 : en:00:45:00.000
00:50:00.000 : en:00:50:00.000
00:55:00.000 : en:00:55:00.000
01:00:00.000 : en:01:00:00.000
01:05:00.000 : en:01:05:00.000
01:10:00.000 : en:01:10:00.000
01:15:00.000 : en:01:15:00.000
01:20:00.000 : en:01:20:00.000



Релиз от:


_________________
Проголосуй за трекер Открытый торрент трекер - RUS-MEDIA.ORG

Проголосуй Открытый торрент трекер - RUS-MEDIA.ORG


Скачать книги и аудио книги через торрент


Вернуться к началу
 Профиль Отправить личное сообщение  
 
   Похожие торренты   Автор   Торрент   Размер 
В этой теме нет новых непрочитанных сообщений. Три часа на побег / В упор / À bout portant [боевик, триллер, драма, 2010] BDRip 720p, Mvo

salma3

0 | 0

8.7 ГБ

В этой теме нет новых непрочитанных сообщений. Побег / The Getaway [боевик, триллер, драма, 1994] HDRip-AVC, Mvo

salma3

30 | 11

746.22 МБ

В этой теме нет новых непрочитанных сообщений. Три дня на побег / The Next Three Days [Триллер, драма, мелодрама, 2010] BDRip-HEVC 1080p, Dub

salma3

44 | 5

4.03 ГБ

В этой теме нет новых непрочитанных сообщений. Побег невозможен / No Escape [Фантастика, боевик, триллер, драма, 1994] HDTVRip-AVC, Mvo

salma3

79 | 16

746.12 МБ

В этой теме нет новых непрочитанных сообщений. Побег / The Getaway [Боевик, Триллер, Криминал, 1972] BDRip 1080p, Mvo

salma3

0 | 0

4.86 ГБ

В этой теме нет новых непрочитанных сообщений. Побег / The Getaway [боевик, триллер, криминал, 1972] BDRip 720p, Mvo

salma3

19 | 9

7.95 ГБ

В этой теме нет новых непрочитанных сообщений. Побег из Нью-Йорка / Escape from New York [Фантастика, боевик, триллер, 1981] BDRip-AVC, Mvo [ОРТ]

salma3

34 | 12

746.08 МБ


Начать новую тему Ответить на тему  [ 1 сообщение ] 




Для Мосгорсуда, Роскомнадзора и рекламодателей:: rstracker[собака]yandex.ru
cron