COVID-19 - Последняя информация о коронавирусе на сайте Минздрава




Торрент файл
скачать торрент магнет ссылка Добавлен: 04 ноя 2017, 13:48
Размер: 2.5 ГБ
Сидеров: 3
Личеров: 0
Статус: (salma3)
Автор

СообщениеДобавлено: 04 ноя 2017, 13:48 

Не в сети
Супермодератор
Аватара пользователя
Дата регистрации:
15 фев 2012, 16:44
Возраст: 31
Спасибо: 8273 / 2148
Сообщения: 96527
Год выхода: 1975
Жанр: ужасы, фантастика
Режиссер: Дэвид Кроненберг

В ролях: Пол Хэмптон, Джо Силвер, Линн Лаури, Аллан Колмэн, Сьюзен Питри, Барбара Стил, Рональд Млодзик, Бэрри Балдаро, Камил Дюшарм, Анна Поснанска

О фильме:
В жилом массиве на острове около Монреаля безумный ученый тестирует выведенного им генетически спроектированного паразита на своей любовнице. Он полагает, что человек — животное, которое думает слишком много, и вывел паразита, чтобы увеличить у людей уровень насилия и сексуального желания. Но происходит бесконтрольное распространение инфекции и скоро другие обитатели жилого комплекса заражаются паразитами. Очень быстро они превращаются в жестоких сексуальных маньяков…



Страна: Канада
Продолжительность: 01:27:54
Перевод: Профессиональный двухголосый, авторский

Файл
Кодек: x264
Качество: BDRip-AVC (Shivers.1975.BDRemux.1080p)
Видео: MPEG-4 AVC, 3494 Kбит/с, 1024x576, 23.976 кадр/с
Аудио #1: AC3, 2 ch, 192 Кбит/с | Профессиональный двухголосый
Аудио #2: AC3, 2 ch, 192 Кбит/с | Aвторский (Сергей Визгунов)
Аудио #3: AC3, 1 ch, 192 Кбит/с | Aнглийский
Субтитры: Русские, английские


Общее
Уникальный идентификатор : 224297420176227606802914660941072019864 (0xA8BE1C9EB40BC7C8B42341FF4B8DB198)
Полное имя : Shivers.1975.BDRip-AVC.mkv
Формат : Matroska
Версия формата : Version 4 / Version 2
Размер файла : 2,50 Гбайт
Продолжительность : 1 ч. 27 м.
Общий поток : 4071 Кбит/сек
Название фильма : Shivers.1975.BDRip-AVC by Koenig
Дата кодирования : UTC 2017-11-02 17:40:48
Программа кодирования : mkvmerge v12.0.0 ('Trust / Lust') 32bit
Библиотека кодирования : libebml v1.3.4 + libmatroska v1.4.5
Обложка : Yes
Attachments : cover.jpg

Видео
Идентификатор : 1
Формат : AVC
Формат/Информация : Advanced Video Codec
Профиль формата : High@L4.1
Параметр CABAC формата : Да
Параметр ReFrames формата : 10 кадров
Идентификатор кодека : V_MPEG4/ISO/AVC
Продолжительность : 1 ч. 27 м.
Битрейт : 3494 Кбит/сек
Ширина : 1024 пикселя
Высота : 576 пикселей
Соотношение сторон : 16:9
Режим частоты кадров : Постоянный
Частота кадров : 23,976 (24000/1001) кадра/сек
Цветовое пространство : YUV
Субдискретизация насыщенности : 4:2:0
Битовая глубина : 8 бит
Тип развёртки : Прогрессивная
Бит/(Пиксели*Кадры) : 0.247
Размер потока : 2,14 Гбайт (86%)
Заголовок : Shivers.1975.BDRip-AVC
Библиотека кодирования : x264 core 148 r2744 b97ae06
Настройки программы : cabac=1 / ref=10 / deblock=1:-3:-3 / analyse=0x3:0x133 / me=umh / subme=10 / psy=1 / psy_rd=1.10:0.10 / mixed_ref=1 / me_range=32 / chroma_me=1 / trellis=2 / 8x8dct=1 / cqm=0 / deadzone=21,11 / fast_pskip=0 / chroma_qp_offset=-3 / threads=3 / lookahead_threads=1 / sliced_threads=0 / nr=0 / decimate=1 / interlaced=0 / bluray_compat=0 / constrained_intra=0 / bframes=14 / b_pyramid=2 / b_adapt=2 / b_bias=0 / direct=3 / weightb=1 / open_gop=0 / weightp=2 / keyint=240 / keyint_min=23 / scenecut=40 / intra_refresh=0 / rc_lookahead=40 / rc=2pass / mbtree=1 / bitrate=3494 / ratetol=1.0 / qcomp=0.60 / qpmin=10 / qpmax=51 / qpstep=4 / cplxblur=20.0 / qblur=0.5 / vbv_maxrate=50000 / vbv_bufsize=62500 / nal_hrd=none / filler=0 / ip_ratio=1.40 / aq=1:1.00
Default : Да
Forced : Нет

Аудио #1
Идентификатор : 2
Формат : AC-3
Формат/Информация : Audio Coding 3
Параметр Endianness формата : Big
Идентификатор кодека : A_AC3
Продолжительность : 1 ч. 27 м.
Вид битрейта : Постоянный
Битрейт : 192 Кбит/сек
Каналы : 2 канала
Расположение каналов : Front: L R
Частота : 48,0 КГц
Частота кадров : 31,250 кадров/сек (1536 spf)
Битовая глубина : 16 бит
Метод сжатия : С потерями
Размер потока : 121 Мбайт (5%)
Заголовок : DVO
Язык : Russian
ServiceKind/String : Complete Main
Default : Да
Forced : Нет

Аудио #2
Идентификатор : 3
Формат : AC-3
Формат/Информация : Audio Coding 3
Параметр Endianness формата : Big
Идентификатор кодека : A_AC3
Продолжительность : 1 ч. 27 м.
Вид битрейта : Постоянный
Битрейт : 192 Кбит/сек
Каналы : 2 канала
Расположение каналов : Front: L R
Частота : 48,0 КГц
Частота кадров : 31,250 кадров/сек (1536 spf)
Битовая глубина : 16 бит
Метод сжатия : С потерями
Размер потока : 121 Мбайт (5%)
Заголовок : AVO - Визгунов
Язык : Russian
ServiceKind/String : Complete Main
Default : Нет
Forced : Нет

Аудио #3
Идентификатор : 4
Формат : AC-3
Формат/Информация : Audio Coding 3
Параметр Endianness формата : Big
Идентификатор кодека : A_AC3
Продолжительность : 1 ч. 27 м.
Вид битрейта : Постоянный
Битрейт : 192 Кбит/сек
Каналы : 1 канал
Расположение каналов : Front: C
Частота : 48,0 КГц
Частота кадров : 31,250 кадров/сек (1536 spf)
Битовая глубина : 16 бит
Метод сжатия : С потерями
Размер потока : 121 Мбайт (5%)
Язык : English
ServiceKind/String : Complete Main
Default : Нет
Forced : Нет

Текст #1
Идентификатор : 5
Формат : UTF-8
Идентификатор кодека : S_TEXT/UTF8
Идентификатор кодека/Информация : UTF-8 Plain Text
Продолжительность : 1 ч. 26 м.
Битрейт : 57 бит/сек
ElementCount : 493
Размер потока : 36,2 Кбайт (0%)
Язык : Russian
Default : Да
Forced : Нет

Текст #2
Идентификатор : 6
Формат : UTF-8
Идентификатор кодека : S_TEXT/UTF8
Идентификатор кодека/Информация : UTF-8 Plain Text
Продолжительность : 1 ч. 26 м.
Битрейт : 35 бит/сек
ElementCount : 570
Размер потока : 22,5 Кбайт (0%)
Язык : English
Default : Нет
Forced : Нет

Меню
00:00:00.000 : en:Chapter 1
00:07:39.541 : en:Chapter 2
00:13:00.863 : en:Chapter 3
00:20:30.019 : en:Chapter 4
00:28:55.482 : en:Chapter 5
00:35:21.536 : en:Chapter 6
00:43:31.817 : en:Chapter 7
00:51:55.277 : en:Chapter 8
00:58:40.432 : en:Chapter 9
01:04:37.414 : en:Chapter 10
01:11:05.594 : en:Chapter 11
01:19:45.363 : en:Chapter 12



_________________
Проголосуй за трекер Открытый торрент трекер - RUS-MEDIA.ORG

Проголосуй Открытый торрент трекер - RUS-MEDIA.ORG


Скачать книги и аудио книги через торрент


Вернуться к началу
 Профиль Отправить личное сообщение  
 
   Похожие торренты   Автор   Торрент   Размер 
В этой теме нет новых непрочитанных сообщений. Судорги / Shivers [ужасы, фантастика, 1975] BDRemux 1080р, Dvo

salma3

3 | 2

22.09 ГБ

В этой теме нет новых непрочитанных сообщений. Заговор Уилби / The Wilby Conspiracy [боевик, триллер, драма, 1975] BDRip-AVC, Dvo

salma3

0 | 0

2.9 ГБ

В этой теме нет новых непрочитанных сообщений. Галактика ужаса / Galaxy of Terror [ужасы, фантастика, 1981] BDRip-AVC, Dvo [Remastered]

salma3

3 | 0

1.58 ГБ

В этой теме нет новых непрочитанных сообщений. Раптор / Raptor [Ужасы, фантастика, боевик, 2001] DVDRip-AVC, Dvo

salma3

0 | 0

743.8 МБ

В этой теме нет новых непрочитанных сообщений. Неисправимый / L'incorrigible [комедия, 1975] BDRip-AVC, Mvo

salma3

0 | 0

2.75 ГБ

В этой теме нет новых непрочитанных сообщений. Безмолвный гнев / Silent Rage [ужасы, фантастика, боевик, 1982] HDRip-AVC, Dvo

salma3

0 | 0

744.49 МБ

В этой теме нет новых непрочитанных сообщений. Инфекция / Заражение / Infection / Kansen [ужасы, фантастика, триллер, 2004] DVDRip-AVC, Dvo

salma3

0 | 0

2.02 ГБ


Начать новую тему Ответить на тему  [ 1 сообщение ] 




Для Мосгорсуда, Роскомнадзора и рекламодателей:: rstracker[собака]yandex.ru
cron