Торрент файл
скачать торрент магнет ссылка Добавлен: 02 ноя 2017, 12:02
Размер: 744.95 МБ
Сидеров: 52
Личеров: 2
Статус: (salma3)
Автор

СообщениеДобавлено: 02 ноя 2017, 12:02 

Не в сети
Супермодератор
Аватара пользователя
Дата регистрации:
15 фев 2012, 16:44
Возраст: 28
Спасибо: 7290 / 2147
Сообщения: 70662
Год выхода: 1997
Жанр: триллер, драма, детектив
Режиссер: Дэвид Финчер

В ролях: Майкл Дуглас, Шон Пенн, Дебора Кара Ангер, Джеймс Ребхорн, Питер Донат, Кэррол Бейкер, Анна Катарина, Армин Мюллер-Шталь, Чарльз Мартине, Юдзи Окумото, Скотт Хантер МакГуайр,

О фильме :
Николас Ван Ортон — само воплощение успеха. Он преуспевает, он невозмутим и спокоен, привык держать любую ситуацию под контролем. На день рождения Николас получает необычный подарок — билет для участия в «Игре». Ему обещают, что игра вернет яркие чувства, позволит ощутить вкус и остроту жизни. Вступив в игру, Николас начинает осознавать, что это игра всерьез, игра не на жизнь, а на смерть.



Страна: США
Продолжительность: 02:08:38
Перевод: Профессиональный, многоголосый закадровый (Позитив-Мультимедиа) + Дублированный (DVD-Group)

Файл
Формат: MKV
Качество: HDRip-AVC
Видео: MPEG-4 AVC, 752x320, ~ 663 Кбит/с
Аудио 1: AAC-LC, 2 ch, ~ 72 Кбит/с | MVO
Аудио 2: AAC-LC, 2 ch, ~ 72 Кбит/с | DUB

Общее
Уникальный идентификатор : 184545749581525146559994968059234330902 (0x8AD637F11CF79F1599E96B061521A916)
Полное имя : D:MOVIESIgra.1997.ExKinoRay.mkv
Формат : Matroska
Версия формата : Version 4 / Version 2
Размер файла : 745 Мбайт
Продолжительность : 2 ч. 8 м.
Общий поток : 809 Кбит/сек
Дата кодирования : UTC 2017-11-02 06:54:04
Программа кодирования : mkvmerge v15.0.0 ('Duel with the Devil') 64-bit
Библиотека кодирования : libebml v1.3.5 + libmatroska v1.4.5

Видео
Идентификатор : 1
Формат : AVC
Формат/Информация : Advanced Video Codec
Профиль формата : High@L4.1
Параметр CABAC формата : Да
Параметр RefFrames формата : 10 кадров
Идентификатор кодека : V_MPEG4/ISO/AVC
Продолжительность : 2 ч. 8 м.
Битрейт : 663 Кбит/сек
Ширина : 752 пикселя
Высота : 320 пикселей
Соотношение сторон : 2,35:1
Режим частоты кадров : Постоянный
Частота кадров : 23,976 (24000/1001) кадра/сек
Цветовое пространство : YUV
Субдискретизация насыщенности : 4:2:0
Битовая глубина : 8 бит
Тип развёртки : Прогрессивная
Бит/(Пиксели*Кадры) : 0.115
Размер потока : 610 Мбайт (82%)
Библиотека кодирования : x264 core 152 r2851kMod ba24899
Настройки программы : cabac=1 / ref=10 / deblock=1:-3:-3 / analyse=0x3:0x133 / me=umh / subme=11 / psy=1 / fade_compensate=0.00 / psy_rd=1.00:0.05 / mixed_ref=1 / me_range=32 / chroma_me=1 / trellis=2 / 8x8dct=1 / cqm=0 / deadzone=21,11 / fast_pskip=0 / chroma_qp_offset=-3 / threads=6 / lookahead_threads=1 / sliced_threads=0 / nr=0 / decimate=0 / interlaced=0 / bluray_compat=0 / constrained_intra=0 / bframes=10 / b_pyramid=2 / b_adapt=2 / b_bias=0 / direct=3 / weightb=1 / open_gop=0 / weightp=2 / keyint=240 / keyint_min=23 / scenecut=40 / intra_refresh=0 / rc_lookahead=40 / rc=2pass / mbtree=1 / bitrate=663 / ratetol=1.0 / qcomp=0.60 / qpmin=0 / qpmax=69 / qpstep=4 / cplxblur=20.0 / qblur=0.5 / vbv_maxrate=50000 / vbv_bufsize=62500 / nal_hrd=none / filler=0 / ip_ratio=1.40 / aq=3:1.00
Default : Да
Forced : Нет

Аудио #1
Идентификатор : 2
Формат : AAC
Формат/Информация : Advanced Audio Codec
Профиль формата : LC
Идентификатор кодека : A_AAC
Продолжительность : 2 ч. 8 м.
Битрейт : 72,0 Кбит/сек
Каналы : 2 канала
Расположение каналов : Front: L R
Частота : 48,0 КГц
Частота кадров : 46,875 кадров/сек (1024 SPF)
Метод сжатия : С потерями
Задержка видео : 9 мс.
Размер потока : 66,2 Мбайт (9%)
Заголовок : MVO (Pozitiv-Multimedia)
Язык : Russian
Default : Да
Forced : Нет

Аудио #2
Идентификатор : 3
Формат : AAC
Формат/Информация : Advanced Audio Codec
Профиль формата : LC
Идентификатор кодека : A_AAC
Продолжительность : 2 ч. 8 м.
Битрейт : 72,0 Кбит/сек
Каналы : 2 канала
Расположение каналов : Front: L R
Частота : 48,0 КГц
Частота кадров : 46,875 кадров/сек (1024 SPF)
Метод сжатия : С потерями
Задержка видео : 9 мс.
Размер потока : 66,3 Мбайт (9%)
Заголовок : Dub (DVD-Group)
Язык : Russian
Default : Нет
Forced : Нет

Меню
00:00:00.000 : en:Opening titles
00:01:06.275 : en:Birthday party
00:02:52.422 : en:“Happy birthday, sir”
00:05:51.851 : en:Profound life experience
00:09:27.734 : en:Forty-eight
00:13:41.738 : en:Consumer Recreation Services
00:17:54.365 : en:“Confused . . . risky . . . bloody . . . whoops”
00:20:52.543 : en:John 9:25
00:24:49.405 : en:“This is your Game, and welcome to it”
00:30:47.846 : en:Helping hand
00:34:00.538 : en:“Don’t let her get away”
00:43:13.508 : en:Czar Nicholas
00:51:09.984 : en:Guy in the gray flannel suit
00:53:55.816 : en:Hotel Nikko
00:59:11.339 : en:Toyed with by depraved children
01:04:56.392 : en:Nicholas Van Cocksucker
01:08:06.541 : en:Human piñata
01:12:31.556 : en:California Regal Sedans
01:15:57.803 : en:Motive
01:18:55.397 : en:Cable Repair Specialists
01:26:49.454 : en:Blue 2/9690D
01:33:56.422 : en:Entombed
01:37:29.927 : en:“Can I have your attention, please?”
01:42:23.095 : en:Trust Taggarene
01:45:14.016 : en:“I love your work”
01:48:25.791 : en:Pulling back the curtain
01:52:38.293 : en:“This is the Game”
01:59:28.119 : en:Cordially invited
02:03:44.250 : en:End credits



Релиз от:


_________________
Проголосуй за трекер Открытый торрент трекер - RUS-MEDIA.ORG

Проголосуй Открытый торрент трекер - RUS-MEDIA.ORG


Вернуться к началу
 Профиль Отправить личное сообщение  
 
   Похожие торренты   Автор   Торрент   Размер 
В этой теме нет новых непрочитанных сообщений. Игра / The Game [триллер, драма, детектив, 1997] BDRemux 1080р, Dub

salma3

20 | 9

44.41 ГБ

В этой теме нет новых непрочитанных сообщений. Игра без прaвил / Fair Game [триллер, драма, биография, 2010] HDRip, Dub

salma3

42 | 17

1.45 ГБ

В этой теме нет новых непрочитанных сообщений. Игра палача / Hangman's Game [ужасы, триллер, детектив, 2015] WEB-DLRip, Avo

salma3

208 | 14

1.38 ГБ

В этой теме нет новых непрочитанных сообщений. Игра Джокера / Joker Game (Ю Ириэ) [триллер, 2015] HDRip, mvo

Dracon

690 | 45

2.05 ГБ

В этой теме нет новых непрочитанных сообщений. Игра Кауфмана / Kaufman's Game [триллер, криминал, 2017] HDRip, Mvo [GreenРай Studio]

salma3

106 | 51

1.32 ГБ

В этой теме нет новых непрочитанных сообщений. Игра Кауфмана / Kaufman's Game [триллер, криминал, 2017] HDRip 720p, Mvo [GreenРай Studio]

salma3

18 | 5

1.41 ГБ

В этой теме нет новых непрочитанных сообщений. Игра Кауфмана / Kaufman's Game [триллер, криминал, 2017] HDRip 1080p, Mvo [GreenРай Studio]

salma3

0 | 73

4.74 ГБ


Начать новую тему Ответить на тему  [ 1 сообщение ] 




Для Мосгорсуда, Роскомнадзора и рекламодателей:: mosgorsud-torrent[собачка]yandex.ru
cron