Торрент файл
скачать торрент магнет ссылка Добавлен: 31 окт 2017, 22:07
Размер: 1.45 ГБ
Сидеров: 78
Личеров: 18
Статус: (salma3)
Автор

СообщениеДобавлено: 31 окт 2017, 22:07 

Не в сети
Супермодератор
Аватара пользователя
Дата регистрации:
15 фев 2012, 16:44
Возраст: 28
Спасибо: 7290 / 2147
Сообщения: 70756
Год выпуска: 2017
Жанр: фантастика, драма, детектив
Режиссер: Марк Палански

В ролях: Питер Динклэйдж, Антон Ельчин, Джулия Ормонд, Генри Йен Кьюсик, Эвелин Брошу, Мартин Донован, Джордана Ларги, Кэрри Энн Флеминг, Грэйсин Шиней, Колин Лоуренс

Описание:
Фильм расскажет о гениальном ученом, загадочным образом умирающем ровно за день до представления своего уникального открытия — прибора, который может записывать и воспроизводить воспоминания.



Страна: США
Продолжительность: 01:51:48
Перевод: Профессиональный (многоголосый закадровый) [AlexFilm]

Формат: WEBDLRip-AVC
Видео: 1024x432 (2.40:1), 29.970 fps, AVC MPEG-4 (H.264), ~1632 kbps, 0.123 bit/pixel
Аудио: 48 kHz, AC3 Dolby Digital, 2/0 (L,R) ch, ~192 kbps

General
Unique ID : 41718678319527628972386443242911052205 (0x1F62B9A5801194508BF07AAFB2C031AD)
Complete name : C:\Users\Юрик\Desktop\Rememory.2017_[tfile.ru].mkv
Format : Matroska
Format version : Version 2
File size : 1.45 GiB
Duration : 1h 51mn
Overall bit rate : 1 861 Kbps
Writing application : Lavf55.12.100
Writing library : Lavf55.12.100

Video
ID : 2
Format : AVC
Format/Info : Advanced Video Codec
Format profile :
Format settings, CABAC : Yes
Format settings, ReFrames : 2 frames
Codec ID : V_MPEG4/ISO/AVC
Duration : 1h 51mn
Bit rate : 1 632 Kbps
Width : 1 024 pixels
Height : 432 pixels
Display aspect ratio : 2.40:1
Frame rate mode : Constant
Frame rate : 29.970 fps
Color space : YUV
Chroma subsampling : 4:2:0
Bit depth : 8 bits
Scan type : Progressive
Bits/(Pixel*Frame) : 0.123
Stream size : 1.27 GiB (88%)
Default : Yes
Forced : No

Audio
ID : 1
Format : AC-3
Format/Info : Audio Coding 3
Mode extension : CM (complete main)
Format settings, Endianness : Big
Codec ID : A_AC3
Duration : 1h 51mn
Bit rate mode : Constant
Bit rate : 192 Kbps
Channel(s) : 2 channels
Channel positions : Front: L R
Sampling rate : 48.0 KHz
Bit depth : 32 bits
Compression mode : Lossy
Stream size : 154 MiB (10%)
Title : DD2.0 AlexFilm
Language : Russian
Default : Yes
Forced : No




_________________
Проголосуй за трекер Открытый торрент трекер - RUS-MEDIA.ORG

Проголосуй Открытый торрент трекер - RUS-MEDIA.ORG


Вернуться к началу
 Профиль Отправить личное сообщение  
 
   Похожие торренты   Автор   Торрент   Размер 
В этой теме нет новых непрочитанных сообщений. Вспомнить заново / Rememory [фантастика, драма, детектив, 2017] WEBRip 720p, Mvo

salma3

310 | 439

3.37 ГБ

В этой теме нет новых непрочитанных сообщений. Вспомнить заново / Rеmеmоrу (Марк Палански / Mark Palansky ) [2017г., фантастика, драма, детектив, WЕBDLRір] MVО

Alfredovich

98 | 38

1.45 ГБ

В этой теме нет новых непрочитанных сообщений. Вспомнить всё: Похищение / The Recall [фантастика, 2017] WEB-DL 1080p, Mvo

salma3

690 | 331

3.4 ГБ

В этой теме нет новых непрочитанных сообщений. Вспомнить всё: Похищение / The Recall [фантастика, 2017] WEB-DLRip, Mvo

salma3

3355 | 1464

1.37 ГБ

В этой теме нет новых непрочитанных сообщений. Пришельцы: Зона тишины / Aliens: Zone of Silence [ужасы, фантастика, детектив, 2017] WEBDLRip, Mvo

salma3

306 | 55

1.37 ГБ

В этой теме нет новых непрочитанных сообщений. Тревис / The Sighting [фантастика, драма, детектив, 2015] WEBDLRip, Mvo

salma3

13 | 6

1.37 ГБ

В этой теме нет новых непрочитанных сообщений. Стефани / Stephanie [драма, ужасы, детектив, 2017] WEBDLRip, Mvo

salma3

348 | 59

1.38 ГБ


Начать новую тему Ответить на тему  [ 1 сообщение ] 




Для Мосгорсуда, Роскомнадзора и рекламодателей:: mosgorsud-torrent[собачка]yandex.ru
cron