Торрент файл
скачать торрент магнет ссылка Добавлен: 30 окт 2017, 12:02
Размер: 1.45 ГБ
Сидеров: 6
Личеров: 0
Статус: (salma3)
Автор

СообщениеДобавлено: 30 окт 2017, 12:02 

Не в сети
Супермодератор
Аватара пользователя
Дата регистрации:
15 фев 2012, 16:44
Возраст: 28
Спасибо: 6644 / 2146
Сообщения: 45843
Год выхода: 1961
Жанр: фантастика, комедия, семейный
Режиссер: Роберт Стивенсон

В ролях: Фред МакМюррэй, Нэнси Олсон, Кинэн Уинн, Томми Кирк, Леон Эймс, Эдвард Эндрюс, Дэвид Льюис, Джек Муллани, Белль Монтроуз, Уолли Браун

О фильме:
Профессор живет в маленьком городке, он увлекается химией — изобретает озорное вещество, «плюющее» на законы тяготения. Он называет его «флаббером», летающей резиной, использовать его можно в разных целях. Если намазать им спортивную обувь, баскетболисты совершенно безнадежной команды колледжа обретут удивительную прыгучесть, победят соперников.



Страна: США
Продолжительность: 01:32:09
Перевод: Профессиональный (многоголосый закадровый)
Релиз от: Охрана (NNMCLUB)

Файл
Качество: DVDRip-AVC
Видео: AVC/H.264, 720x544, ~1874 Kbps
Аудио 1: Русский, AC3, 2 ch, 192 Kbps, 48.0 kHz
Аудио 2: Английский, AC3, 2 ch, 192 Kbps, 48.0 kHz

General
Unique ID : 220651515218602335878458746161221907712 (0xA5FFEFA08A2D303AA3BFBA61540CB500)
Complete name : F:DownloadsОтмороженный профессор. 1961. NNMCLUB.mkv
Format : Matroska
Format version : Version 4 / Version 2
File size : 1.45 GiB
Duration : 1h 32mn
Overall bit rate : 2 260 Kbps
Encoded date : UTC 2017-10-24 12:04:11
Writing application : mkvmerge v7.0.0 ('Where We Going') 32bit built on Jun 9 2014 15:08:34
Writing library : libebml v1.3.0 + libmatroska v1.4.1
DURATION : 01:32:08.960000000
NUMBER_OF_FRAMES : 172780
NUMBER_OF_BYTES : 132695040
_STATISTICS_WRITING_APP : mkvmerge v7.0.0 ('Where We Going') 32bit built on Jun 9 2014 15:08:34
_STATISTICS_WRITING_DATE_UTC : 2017-10-24 12:04:11
_STATISTICS_TAGS : BPS DURATION NUMBER_OF_FRAMES NUMBER_OF_BYTES

Video
ID : 1
Format : AVC
Format/Info : Advanced Video Codec
Format profile : High@L4.1
Format settings, CABAC : Yes
Format settings, ReFrames : 12 frames
Codec ID : V_MPEG4/ISO/AVC
Duration : 1h 32mn
Bit rate : 1 874 Kbps
Width : 720 pixels
Height : 544 pixels
Display aspect ratio : 4:3
Frame rate mode : Constant
Frame rate : 25.000 fps
Color space : YUV
Chroma subsampling : 4:2:0
Bit depth : 8 bits
Scan type : Progressive
Bits/(Pixel*Frame) : 0.191
Stream size : 1.18 GiB (81%)
Title : The Absent Minded Professor
Writing library : x264 core 125 r2208 d9d2288
Encoding settings : cabac=1 / ref=12 / deblock=1:-1:-1 / analyse=0x3:0x133 / me=umh / subme=10 / psy=1 / psy_rd=1.00:0.10 / mixed_ref=1 / me_range=32 / chroma_me=1 / trellis=2 / 8x8dct=1 / cqm=0 / deadzone=21,11 / fast_pskip=0 / chroma_qp_offset=-3 / threads=6 / lookahead_threads=1 / sliced_threads=0 / nr=0 / decimate=0 / interlaced=0 / bluray_compat=0 / constrained_intra=0 / bframes=7 / b_pyramid=2 / b_adapt=2 / b_bias=0 / direct=3 / weightb=1 / open_gop=0 / weightp=2 / keyint=250 / keyint_min=25 / scenecut=40 / intra_refresh=0 / rc_lookahead=60 / rc=2pass / mbtree=1 / bitrate=1874 / ratetol=1.0 / qcomp=0.60 / qpmin=0 / qpmax=69 / qpstep=4 / cplxblur=20.0 / qblur=0.5 / ip_ratio=1.40 / aq=1:1.00
Language : English
Default : Yes
Forced : No

Audio #1
ID : 2
Format : AC-3
Format/Info : Audio Coding 3
Mode extension : CM (complete main)
Format settings, Endianness : Big
Codec ID : A_AC3
Duration : 1h 32mn
Bit rate mode : Constant
Bit rate : 192 Kbps
Channel(s) : 2 channels
Channel positions : Front: L R
Sampling rate : 48.0 KHz
Bit depth : 16 bits
Compression mode : Lossy
Stream size : 127 MiB (8%)
Title : Многоголосый закадровый
Language : Russian
Default : Yes
Forced : No

Audio #2
ID : 3
Format : AC-3
Format/Info : Audio Coding 3
Mode extension : CM (complete main)
Format settings, Endianness : Big
Codec ID : A_AC3
Duration : 1h 32mn
Bit rate mode : Constant
Bit rate : 192 Kbps
Channel(s) : 2 channels
Channel positions : Front: L R
Sampling rate : 48.0 KHz
Bit depth : 16 bits
Compression mode : Lossy
Stream size : 127 MiB (8%)
Title : Оригинал
Language : English
Default : No
Forced : No


_________________
Проголосуй за трекер Открытый торрент трекер - RUS-MEDIA.ORG

Проголосуй Открытый торрент трекер - RUS-MEDIA.ORG



реклама партнёра


Вернуться к началу
 Профиль Отправить личное сообщение  
 
   Похожие торренты   Автор   Торрент   Размер 
В этой теме нет новых непрочитанных сообщений. Чокнутый профессор / The Nutty Professor [Комедия, фантастика, мелодрама, 1996] BDRemux 1080p, Mvo+Dvo+Sub

salma3

5 | 8

25.65 ГБ

В этой теме нет новых непрочитанных сообщений. Чокнутый профессор / The Nutty Professor [фантастика, мелодрама, комедия, 1996] BDRip, Mvo [Россия]

salma3

20 | 6

1.45 ГБ

В этой теме нет новых непрочитанных сообщений. Чокнутый профессор 2 / Nutty Professor II: The Klumps [Фантастика, мелодрама, комедия, 2000] BDRip 1080p, Dub

salma3

27 | 15

10.17 ГБ

В этой теме нет новых непрочитанных сообщений. Ловушка для родителей / The Parent Trap [мелодрама, комедия, семейный, 1961] WEB-DLRip, Mvo [НТВ+]

salma3

56 | 19

2.18 ГБ

В этой теме нет новых непрочитанных сообщений. Вечера на хуторе близ Диканьки [семейный, сказка, 1961] WEB-DLRip

salma3

54 | 10

1.32 ГБ

В этой теме нет новых непрочитанных сообщений. Путешествие на дно моря / Voyage to the Bottom of the Sea [фантастика, приключения, 1961] BDRip, Mvo

salma3

76 | 19

1.46 ГБ

В этой теме нет новых непрочитанных сообщений. Малыши из мусорного бачка / The Garbage Pail Kids Movie [фантастика, комедия, приключения, семейный, 1987] DVDRip, Avo

salma3

42 | 10

2 ГБ


Начать новую тему Ответить на тему  [ 1 сообщение ] 




Для Мосгорсуда, Роскомнадзора и рекламодателей:: mosgorsud-torrent[собачка]yandex.ru