Торрент файл
скачать торрент магнет ссылка Добавлен: 29 окт 2017, 15:21
Размер: 1.59 ГБ
Сидеров: 2
Личеров: 0
Статус: (salma3)
Автор

СообщениеДобавлено: 29 окт 2017, 15:21 

Не в сети
Супермодератор
Аватара пользователя
Дата регистрации:
15 фев 2012, 16:44
Возраст: 28
Спасибо: 7165 / 2147
Сообщения: 62263
Год выхода: 1993
Жанр: семейный, комедия, приключения
Режиссер: Билли Вебер

В ролях: Джейкоб Тирни, Ной Флайсс, Марта Плимптон, Стивен Тоболовски, Джоан Аллен, Крис Пенн, Мори Чайкин, Роналд Гаттман, Удо Кир, Шон Бака

О фильме:
Они бродили по дорогам. Джош и Сэм колесили по Америке. Они искали кудрявую девушку — блондинку в красной шляпке. Братья знали, что красавицу зовут «Свобода» и что она на самом деле представляет в этой стране иную цивилизацию. Джошуа убедил своего младшего брата, что С.Э.М. — не просто имя, а зашифрованное название, которое означает «Синтезированный Запрограммированный Мутант». В правом глазу Сэма — электронный механизм, в мозгу — микросхемы… По крайней мере, так говорил Джош, а у Сэма не было причин ему не верить. Два брата бродили по дорогам Америки, однажды даже угнали автомобиль, и пришел день, когда они действительно встретили ее — ту, которую Джош и Сэм называли «Свободой»!



Производство: США / Castle Rock Entertainment, City Lights Home Video, New Line Cinema
Продолжительность: 01:37:50
Перевод: авторский одноголосый [Сергей Визгунов]

Файл
Качество: VHSRip
Формат: AVI
Видео: XviD, 624x480 (4:3), 23.976 fps, 1927 kbps, 0.268 bit/pixel
Аудио #1: русский, AC3 2.0, 48 kHz, 192 kbps
Аудио #2: английский, AC3 2.0, 48 kHz, 192 kbps

Формат : AVI
Формат/Информация : Audio Video Interleave
Размер файла : 1,59 Гбайт
Продолжительность : 1 ч. 37 м.
Общий поток : 2325 Кбит/сек
Название фильма : Josh_i_Sem_1993_VSHRip_Menen
Режиссёр : Menen
Программа кодирования : VirtualDubModRus 1.5.10.2 (build 2542/release)
Библиотека кодирования : VirtualDubMod build 2542/release

Видео
Идентификатор : 0
Формат : MPEG-4 Visual
Профиль формата : Advanced Simple@L5
Параметр BVOP формата : 1
Параметр QPel формата : Нет
Параметр GMC формата : Без точки перехода
Параметр матрицы формата : Выборочная
Идентификатор кодека : XVID
Идентификатор кодека/Подсказка : XviD
Продолжительность : 1 ч. 37 м.
Битрейт : 1927 Кбит/сек
Ширина : 624 пикселя
Высота : 480 пикселей
Соотношение сторон : 4:3
Частота кадров : 23,976 кадра/сек
Цветовое пространство : YUV
Субдискретизация насыщенности : 4:2:0
Битовая глубина : 8 бит
Тип развёртки : Прогрессивная
Метод сжатия : С потерями
Бит/(Пиксели*Кадры) : 0.268
Размер потока : 1,32 Гбайт (83%)
Библиотека кодирования : XviD 73

Аудио #1
Идентификатор : 1
Формат : AC-3
Формат/Информация : Audio Coding 3
Расширение режима : CM (complete main)
Параметр Endianness формата : Big
Идентификатор кодека : 2000
Продолжительность : 1 ч. 37 м.
Вид битрейта : Постоянный
Битрейт : 192 Кбит/сек
Каналы : 2 канала
Расположение каналов : Front: L R
Частота : 48,0 КГц
Метод сжатия : С потерями
Размер потока : 134 Мбайт (8%)
Выравнивание : Разделение по промежуткам
Продолжительность промежутка : 42 мс. (1,00 видеокадр)
Время предзагрузки промежутка : 500 мс.

Аудио #2
Идентификатор : 2
Формат : AC-3
Формат/Информация : Audio Coding 3
Расширение режима : CM (complete main)
Параметр Endianness формата : Big
Идентификатор кодека : 2000
Продолжительность : 1 ч. 37 м.
Вид битрейта : Постоянный
Битрейт : 192 Кбит/сек
Каналы : 2 канала
Расположение каналов : Front: L R
Частота : 48,0 КГц
Метод сжатия : С потерями
Размер потока : 134 Мбайт (8%)
Выравнивание : Разделение по промежуткам
Продолжительность промежутка : 42 мс. (1,00 видеокадр)
Время предзагрузки промежутка : 500 мс.


_________________
Проголосуй за трекер Открытый торрент трекер - RUS-MEDIA.ORG

Проголосуй Открытый торрент трекер - RUS-MEDIA.ORG


Вернуться к началу
 Профиль Отправить личное сообщение  
 
   Похожие торренты   Автор   Торрент   Размер 
В этой теме нет новых непрочитанных сообщений. В плену песков / A Far Off Place [драма, мелодрама, приключения, семейный, 1993] WEB-DL 720p, Mvo+Avo

salma3

99 | 8

3.61 ГБ

В этой теме нет новых непрочитанных сообщений. Освободите Вилли / Free Willy [драма, приключения, семейный, 1993] BDRemux 1080р, Dub+Mvo+Dvo+Avo+Sub

salma3

9 | 10

25.92 ГБ

В этой теме нет новых непрочитанных сообщений. Парк Юрского периода / Jurassic Park [Фантастика, приключения, семейный, 1993] BDRemux 1080p, Dub

salma3

1 | 1

36.04 ГБ

В этой теме нет новых непрочитанных сообщений. Парк Юрского периода / Jurassic Park [приключения, фантастика, семейный, 1993] BDRip 1080p, Dub+Mvo+Sub

salma3

18 | 31

14.55 ГБ

В этой теме нет новых непрочитанных сообщений. Парк Юрского периода / Jurassic Park [Фантастика, приключения, семейный, 1993] UHD BDRemux 2160p, Dub [4K]

salma3

0 | 0

115.13 ГБ

В этой теме нет новых непрочитанных сообщений. Вискерс / Усатик / Whiskers [фэнтези, комедия, семейный, 1997] VHSRip, Avo

salma3

24 | 2

883.44 МБ

В этой теме нет новых непрочитанных сообщений. Мы вернулись! История динозавра / We're Back! A Dinosaur's Story [мультфильм, фэнтези, приключения, семейный, 1993] BDRip 720p, Mvo

salma3

21 | 10

7.62 ГБ


Начать новую тему Ответить на тему  [ 1 сообщение ] 




Для Мосгорсуда, Роскомнадзора и рекламодателей:: mosgorsud-torrent[собачка]yandex.ru
cron