Торрент файл
скачать торрент магнет ссылка Добавлен: 23 окт 2017, 03:21
Размер: 745.37 МБ
Сидеров: 84
Личеров: 29
Статус: (salma3)
Автор

СообщениеДобавлено: 23 окт 2017, 03:21 

Не в сети
Супермодератор
Аватара пользователя
Дата регистрации:
15 фев 2012, 16:44
Возраст: 28
Спасибо: 7290 / 2147
Сообщения: 70480
Год выхода: 1994
Жанр: Триллер, криминал, приключения
Режиссер: Кёртис Хэнсон

В ролях: Мэрил Стрип, Кевин Бэйкон, Дэвид Стрэтэйрн, Джон С. Райлли, Джозеф Маццелло, Стефани Сойер, Бенджамин Брэтт, Виктор Гэллоуэй, Элизабет Хоффман, Уильям Лаккинг, Гленн Моршауэр, Дайан Делано, Томас Ф. Даффи

О фильме :
Нельзя сказать, что Гейл счастлива в браке: они с мужем на грани развода. Но однажды она принимает судьбоносное для семьи решение: отправиться в путешествие по бурной реке, знакомой ей с молодых лет. Семейные дрязги отходят на второй план, когда куда большую опасность, чем дикая вода, начинают представлять люди, оказавшиеся рядом.



Страна: США
Продолжительность: 01:51:17
Перевод: Профессиональный (многоголосый, закадровый) | R1

Файл
Формат: MKV
Качество: BDRip-AVC
Видео: MPEG-4 AVC, 768x328, ~ 857 Кбит/с
Аудио: AAC-LC, 2 ch, ~ 76 Кбит/с
Cубтитры: Русские

Общее
Уникальный идентификатор : 185982781989197926445215488830145820081 (0x8BEAFB1C169CF194BAD3D6B2B27BF5B1)
Полное имя : D:MOVIESRiver Wild.1994.ExKinoRay.mkv
Формат : Matroska
Версия формата : Version 4 / Version 2
Размер файла : 745 Мбайт
Продолжительность : 1 ч. 51 м.
Общий поток : 935 Кбит/сек
Дата кодирования : UTC 2017-10-22 19:53:03
Программа кодирования : mkvmerge v15.0.0 ('Duel with the Devil') 64-bit
Библиотека кодирования : libebml v1.3.5 + libmatroska v1.4.5

Видео
Идентификатор : 1
Формат : AVC
Формат/Информация : Advanced Video Codec
Профиль формата : High@L4.1
Параметр CABAC формата : Да
Параметр RefFrames формата : 10 кадров
Идентификатор кодека : V_MPEG4/ISO/AVC
Продолжительность : 1 ч. 51 м.
Битрейт : 857 Кбит/сек
Ширина : 768 пикселей
Высота : 328 пикселей
Соотношение сторон : 2,35:1
Режим частоты кадров : Постоянный
Частота кадров : 23,976 (24000/1001) кадра/сек
Цветовое пространство : YUV
Субдискретизация насыщенности : 4:2:0
Битовая глубина : 8 бит
Тип развёртки : Прогрессивная
Бит/(Пиксели*Кадры) : 0.142
Размер потока : 683 Мбайт (92%)
Библиотека кодирования : x264 core 152 r2851kMod ba24899
Настройки программы : cabac=1 / ref=10 / deblock=1:-2:-1 / analyse=0x3:0x133 / me=umh / subme=11 / psy=1 / fade_compensate=0.00 / psy_rd=1.00:0.02 / mixed_ref=1 / me_range=32 / chroma_me=1 / trellis=2 / 8x8dct=1 / cqm=0 / deadzone=21,11 / fast_pskip=0 / chroma_qp_offset=-3 / threads=6 / lookahead_threads=1 / sliced_threads=0 / nr=0 / decimate=0 / interlaced=0 / bluray_compat=0 / constrained_intra=0 / bframes=10 / b_pyramid=2 / b_adapt=2 / b_bias=0 / direct=3 / weightb=1 / open_gop=0 / weightp=2 / keyint=240 / keyint_min=23 / scenecut=40 / intra_refresh=0 / rc_lookahead=40 / rc=2pass / mbtree=1 / bitrate=857 / ratetol=1.0 / qcomp=0.60 / qpmin=0 / qpmax=69 / qpstep=4 / cplxblur=20.0 / qblur=0.5 / vbv_maxrate=50000 / vbv_bufsize=62500 / nal_hrd=none / filler=0 / ip_ratio=1.40 / aq=3:1.00
Default : Да
Forced : Нет

Аудио
Идентификатор : 2
Формат : AAC
Формат/Информация : Advanced Audio Codec
Профиль формата : LC
Идентификатор кодека : A_AAC
Продолжительность : 1 ч. 51 м.
Битрейт : 76,0 Кбит/сек
Каналы : 2 канала
Расположение каналов : Front: L R
Частота : 48,0 КГц
Частота кадров : 46,875 кадров/сек (1024 SPF)
Метод сжатия : С потерями
Задержка видео : 9 мс.
Размер потока : 60,5 Мбайт (8%)
Язык : Russian
Default : Да
Forced : Нет

Текст
Идентификатор : 3
Формат : UTF-8
Идентификатор кодека : S_TEXT/UTF8
Идентификатор кодека/Информация : UTF-8 Plain Text
Продолжительность : 1 ч. 46 м.
Битрейт : 94 бит/сек
ElementCount : 1197
Размер потока : 74,0 Кбайт (0%)
Язык : Russian
Default : Нет
Forced : Нет

Меню
00:00:00.000 : en:1. Main Titles: Reflections on the Charles
00:07:19.481 : en:2. Wade
00:10:34.175 : en:3. Three on a Raft
00:22:46.907 : en:4. Our First Whoop-Dee-Doo
00:24:33.263 : en:5. Wade in the Water
00:33:44.105 : en:6. The Birthday Present
00:40:26.299 : en:7. Going With My Friends
00:47:22.465 : en:8. I Need Your Wife...
00:57:27.653 : en:9. Ranger Johnny
01:06:46.544 : en:10. Pursued
01:21:06.278 : en:11. Little Niagra
01:28:06.239 : en:12. No Stopping and No Turning Back
01:34:24.742 : en:13. The River Wild
01:41:05.142 : en:14. The Trap
01:43:05.262 : en:15. There's No Way...
01:47:13.719 : en:16. End Titles: "The Water Is Wide" (Cowboy Junkies)

Релиз от:


_________________
Проголосуй за трекер Открытый торрент трекер - RUS-MEDIA.ORG

Проголосуй Открытый торрент трекер - RUS-MEDIA.ORG


Вернуться к началу
 Профиль Отправить личное сообщение  
 
   Похожие торренты   Автор   Торрент   Размер 
В этой теме нет новых непрочитанных сообщений. Дикая река / The River Wild [триллер, криминал, приключения, 1994] HDRip, Mvo

salma3

10 | 11

1.45 ГБ

В этой теме нет новых непрочитанных сообщений. Ветреная река / Wind River [боевик, триллер, криминал, 2017] BDRip, Dub [iTunes]

salma3

49 | 5

1.41 ГБ

В этой теме нет новых непрочитанных сообщений. Ветреная река / Wind River [Боевик, триллер, криминал, 2017] BDRip, Dub [Лицензия]

salma3

0 | 0

1.46 ГБ

В этой теме нет новых непрочитанных сообщений. Ветреная река / Wind River [Боевик, триллер, криминал, 2017] BDRip, Dub [Лицензия]

salma3

184 | 47

1.46 ГБ

В этой теме нет новых непрочитанных сообщений. Ветреная река / Wind River [Боевик, триллер, криминал, 2017] BDRip 720p, Dub [Лицензия]

salma3

11 | 8

6.71 ГБ

В этой теме нет новых непрочитанных сообщений. Ветреная река / Wind River [Боевик, триллер, криминал, 2017] BDRip 1080p, Dub [Лицензия]

salma3

5 | 11

9.38 ГБ

В этой теме нет новых непрочитанных сообщений. Ветреная река / Wind River [триллер, драма, криминал, 2017] BDRip 1080p, Dub [iTunes]

salma3

75 | 10

7.55 ГБ


Начать новую тему Ответить на тему  [ 1 сообщение ] 




Для Мосгорсуда, Роскомнадзора и рекламодателей:: mosgorsud-torrent[собачка]yandex.ru
cron