Торрент файл
скачать торрент магнет ссылка Добавлен: 20 окт 2017, 00:01
Размер: 745.87 МБ
Сидеров: 56
Личеров: 19
Статус: (salma3)
Автор

СообщениеДобавлено: 20 окт 2017, 00:01 

Не в сети
Супермодератор
Аватара пользователя
Дата регистрации:
15 фев 2012, 16:44
Возраст: 28
Спасибо: 7285 / 2147
Сообщения: 70259
Год выхода: 2006
Жанр: Ужасы, фантастика, комедия
Режиссер: Джеймс Ганн

В ролях: Натан Филлион, Элизабет Бэнкс, Майкл Рукер, Грегг Генри, Дон Томпсон, Ксанта Рэдли, Таня Солнье, Дастин Миллиган, Хэйг Сазерленд, Дженнифер Коппинг, Зак Людвиг, Кэтрин Киркпатрик,

О фильме :
Грант Грант, житель маленького городка Уилси, обнаруживает в лесу упавший метеорит. Из этого космического тела исторгается некая субстанция, которая тут же поселяется в груди Гранта. После этого с ним начинают происходить странные метаморфозы. Он постоянно испытывает сильный голод, а его тело подвергается трансформациям. Когда же Грант осознает свое новое предназначение, он бросается превращать других жителей городка в таких же, как и он, ненасытных зомби. Первым делом Грант хочет проделать это с собственной женой Старлой, однако местный шериф Билл Парди делает все, чтобы защитить ее и весь город от космической чумы…



Страна: Канада, США
Продолжительность: 01:35:36
Перевод: Профессиональный (многоголосый, закадровый)

Файл
Формат: MKV
Качество: HDRip-AVC
Видео: MPEG-4 AVC, 752x424, ~ 1013 Кбит/с
Аудио: AAC-LC, 2 ch, ~ 76 Кбит/с

Общее
Уникальный идентификатор : 217140045278938503331706248790382773321 (0xA35BA6CADB088429822954A3667C8449)
Полное имя : D:MOVIESSlither.2006.ExKinoRay.mkv
Формат : Matroska
Версия формата : Version 2
Размер файла : 746 Мбайт
Продолжительность : 1 ч. 35 м.
Общий поток : 1091 Кбит/сек
Дата кодирования : UTC 2017-10-19 19:26:37
Программа кодирования : mkvmerge v17.0.0 ('Be Ur Friend') 64-bit
Библиотека кодирования : libebml v1.3.5 + libmatroska v1.4.8

Видео
Идентификатор : 1
Формат : AVC
Формат/Информация : Advanced Video Codec
Профиль формата : High@L4.1
Параметр CABAC формата : Да
Параметр RefFrames формата : 10 кадров
Идентификатор кодека : V_MPEG4/ISO/AVC
Продолжительность : 1 ч. 35 м.
Битрейт : 1013 Кбит/сек
Ширина : 752 пикселя
Высота : 424 пикселя
Соотношение сторон : 16:9
Режим частоты кадров : Постоянный
Частота кадров : 23,976 (24000/1001) кадра/сек
Цветовое пространство : YUV
Субдискретизация насыщенности : 4:2:0
Битовая глубина : 8 бит
Тип развёртки : Прогрессивная
Бит/(Пиксели*Кадры) : 0.133
Размер потока : 692 Мбайт (93%)
Библиотека кодирования : x264 core 152 r2851kMod ba24899
Настройки программы : cabac=1 / ref=10 / deblock=1:-3:-2 / analyse=0x3:0x133 / me=umh / subme=11 / psy=1 / fade_compensate=0.00 / psy_rd=1.00:0.10 / mixed_ref=1 / me_range=32 / chroma_me=1 / trellis=2 / 8x8dct=1 / cqm=0 / deadzone=21,11 / fast_pskip=0 / chroma_qp_offset=-3 / threads=6 / lookahead_threads=1 / sliced_threads=0 / nr=0 / decimate=0 / interlaced=0 / bluray_compat=0 / constrained_intra=0 / bframes=10 / b_pyramid=2 / b_adapt=2 / b_bias=0 / direct=3 / weightb=1 / open_gop=0 / weightp=2 / keyint=240 / keyint_min=23 / scenecut=40 / intra_refresh=0 / rc_lookahead=40 / rc=2pass / mbtree=1 / bitrate=1013 / ratetol=1.0 / qcomp=0.60 / qpmin=0 / qpmax=69 / qpstep=4 / cplxblur=20.0 / qblur=0.5 / vbv_maxrate=50000 / vbv_bufsize=62500 / nal_hrd=none / filler=0 / ip_ratio=1.40 / aq=3:1.00
Default : Да
Forced : Нет

Аудио
Идентификатор : 2
Формат : AAC
Формат/Информация : Advanced Audio Codec
Профиль формата : LC
Идентификатор кодека : A_AAC
Продолжительность : 1 ч. 35 м.
Битрейт : 76,0 Кбит/сек
Каналы : 2 канала
Расположение каналов : Front: L R
Частота : 48,0 КГц
Частота кадров : 46,875 кадров/сек (1024 SPF)
Метод сжатия : С потерями
Задержка видео : 9 мс.
Размер потока : 52,0 Мбайт (7%)
Язык : Russian
Default : Да
Forced : Нет




Релиз от:


_________________
Проголосуй за трекер Открытый торрент трекер - RUS-MEDIA.ORG

Проголосуй Открытый торрент трекер - RUS-MEDIA.ORG


Вернуться к началу
 Профиль Отправить личное сообщение  
 
   Похожие торренты   Автор   Торрент   Размер 
В этой теме нет новых непрочитанных сообщений. Слизняк / Slither [ужасы, фантастика, комедия, 2006] BDRip 720p, Mvo

salma3

23 | 3

5.17 ГБ

В этой теме нет новых непрочитанных сообщений. Роботы-убийцы / Chopping Mall [ужасы, фантастика, комедия, 1986] HDRip, Avo

salma3

85 | 26

1.37 ГБ

В этой теме нет новых непрочитанных сообщений. Расплавленное тело / Body Melt [фантастика, ужасы, комедия, 1993] HDRip-AVC, Avo

salma3

33 | 2

744.2 МБ

В этой теме нет новых непрочитанных сообщений. Возвращение живых мертвецов 5: Рейв из могилы / Return of the Living Dead: Rave to the Grave [ужасы, фантастика, комедия, 2005] HDRip-AVC, Dvo

salma3

23 | 16

1.55 ГБ

В этой теме нет новых непрочитанных сообщений. Штурмовики СС / S.S. Doomtrooper [Ужасы, фантастика, боевик, 2006] DVDRip, Avo

salma3

173 | 21

1.36 ГБ

В этой теме нет новых непрочитанных сообщений. Воины Терра / Warriors of Terra [ужасы, фантастика, 2006] DVDRip,Dvo

salma3

77 | 3

1.33 ГБ

В этой теме нет новых непрочитанных сообщений. Последняя охота / The Hunt [Ужасы, фантастика, триллер, 2006] DVDRip, Dvo

salma3

232 | 110

1.37 ГБ


Начать новую тему Ответить на тему  [ 1 сообщение ] 




Для Мосгорсуда, Роскомнадзора и рекламодателей:: mosgorsud-torrent[собачка]yandex.ru
cron