Торрент файл
скачать торрент магнет ссылка Добавлен: 16 окт 2017, 11:01
Размер: 745.9 МБ
Сидеров: 84
Личеров: 23
Статус: (salma3)
Автор

СообщениеДобавлено: 16 окт 2017, 11:01 

Не в сети
Супермодератор
Аватара пользователя
Дата регистрации:
15 фев 2012, 16:44
Возраст: 28
Спасибо: 6905 / 2147
Сообщения: 52210
Год выхода: 1996
Жанр: фантастика, комедия
Режиссер: Тим Бёртон / Timothy Burton

В ролях: Джек Николсон, Гленн Клоуз, Аннетт Бенинг, Пирс Броснан, Дэнни ДеВито, Мартин Шорт, Сара Джессика Паркер, Майкл Дж. Фокс, Род Стайгер, Том Джонс

О фильме :
Марсиане атакуют планету Земля. Высадив свои космические корабли в пустыне, эти бесстрастные зеленые существа, которые не имеют души, нападают во всех направлениях. Они везде. Вашингтон, Лас-Вегас и другие города сотрясаются от ужасных взрывов марсиан. Президент США дает задание своим вооруженным силам принять меры. Но мнения командующих генералов расходятся. Генерал Деккер считает, что нужно разрушить марсиан и вернуть их обратно на Марс, а генерал Кейси уверен, что землянам необходимо заключить мир с ними. Последующие события покажут, кто из них был прав…



Страна: США
Продолжительность: 01:45:45
Перевод: Профессиональный (полное дублирование) Лицензия

Файл
Формат: MKV
Качество: HDRip-AVC
Видео: MPEG-4 AVC, 768x320, ~ 908 Кбит/с
Аудио: AAC-LC, 2 ch, ~76 Кбит/с
Субтитры: Русские, английские

Общее
Уникальный идентификатор : 170857323859229243028623318792909854694 (0x8089EC729C984690B14F98349F0797E6)
Полное имя : D:MOVIESMars Attacks!.1996.ExKinoRay.mkv
Формат : Matroska
Версия формата : Version 4 / Version 2
Размер файла : 746 Мбайт
Продолжительность : 1 ч. 45 м.
Общий поток : 986 Кбит/сек
Дата кодирования : UTC 2017-10-14 05:36:15
Программа кодирования : mkvmerge v15.0.0 ('Duel with the Devil') 64-bit
Библиотека кодирования : libebml v1.3.5 + libmatroska v1.4.5

Видео
Идентификатор : 1
Формат : AVC
Формат/Информация : Advanced Video Codec
Профиль формата : High@L4.1
Параметр CABAC формата : Да
Параметр RefFrames формата : 10 кадров
Идентификатор кодека : V_MPEG4/ISO/AVC
Продолжительность : 1 ч. 45 м.
Битрейт : 908 Кбит/сек
Ширина : 768 пикселей
Высота : 320 пикселей
Соотношение сторон : 2,40:1
Режим частоты кадров : Постоянный
Частота кадров : 23,976 (24000/1001) кадра/сек
Цветовое пространство : YUV
Субдискретизация насыщенности : 4:2:0
Битовая глубина : 8 бит
Тип развёртки : Прогрессивная
Бит/(Пиксели*Кадры) : 0.154
Размер потока : 687 Мбайт (92%)
Библиотека кодирования : x264 core 152 r2851kMod ba24899
Настройки программы : cabac=1 / ref=10 / deblock=1:-2:-2 / analyse=0x3:0x133 / me=umh / subme=11 / psy=1 / fade_compensate=0.00 / psy_rd=1.00:0.05 / mixed_ref=1 / me_range=32 / chroma_me=1 / trellis=2 / 8x8dct=1 / cqm=0 / deadzone=21,11 / fast_pskip=0 / chroma_qp_offset=-3 / threads=6 / lookahead_threads=1 / sliced_threads=0 / nr=0 / decimate=0 / interlaced=0 / bluray_compat=0 / constrained_intra=0 / bframes=10 / b_pyramid=2 / b_adapt=2 / b_bias=0 / direct=3 / weightb=1 / open_gop=0 / weightp=2 / keyint=240 / keyint_min=23 / scenecut=40 / intra_refresh=0 / rc_lookahead=40 / rc=2pass / mbtree=1 / bitrate=908 / ratetol=1.0 / qcomp=0.60 / qpmin=0 / qpmax=69 / qpstep=4 / cplxblur=20.0 / qblur=0.5 / vbv_maxrate=50000 / vbv_bufsize=62500 / nal_hrd=none / filler=0 / ip_ratio=1.40 / aq=3:1.00
Default : Да
Forced : Нет

Аудио
Идентификатор : 2
Формат : AAC
Формат/Информация : Advanced Audio Codec
Профиль формата : LC
Идентификатор кодека : A_AAC
Продолжительность : 1 ч. 45 м.
Битрейт : 76,0 Кбит/сек
Каналы : 2 канала
Расположение каналов : Front: L R
Частота : 48,0 КГц
Частота кадров : 46,875 кадров/сек (1024 SPF)
Метод сжатия : С потерями
Задержка видео : 9 мс.
Размер потока : 57,5 Мбайт (8%)
Язык : Russian
Default : Да
Forced : Нет

Текст #1
Идентификатор : 3
Формат : UTF-8
Идентификатор кодека : S_TEXT/UTF8
Идентификатор кодека/Информация : UTF-8 Plain Text
Продолжительность : 1 ч. 38 м.
Битрейт : 62 бит/сек
ElementCount : 1064
Размер потока : 44,8 Кбайт (0%)
Язык : Russian
Default : Нет
Forced : Нет

Текст #2
Идентификатор : 4
Формат : UTF-8
Идентификатор кодека : S_TEXT/UTF8
Идентификатор кодека/Информация : UTF-8 Plain Text
Продолжительность : 1 ч. 45 м.
Битрейт : 47 бит/сек
ElementCount : 1157
Размер потока : 36,2 Кбайт (0%)
Язык : English
Default : Нет
Forced : Нет



Релиз от:


_________________
Проголосуй за трекер Открытый торрент трекер - RUS-MEDIA.ORG

Проголосуй Открытый торрент трекер - RUS-MEDIA.ORG



реклама партнёра


Вернуться к началу
 Профиль Отправить личное сообщение  
 
   Похожие торренты   Автор   Торрент   Размер 
В этой теме нет новых непрочитанных сообщений. Марс атакует! / Mars Attacks! [1996, фантастика, комедия] BDRip-HEVC 1080p, Dub

salma3

59 | 32

4.62 ГБ

В этой теме нет новых непрочитанных сообщений. Марс атакует! / Mars Attacks! [фантастика, боевик, триллер, 1996] BDRip 720p, Dub+Dvo+Avo+Sub

salma3

51 | 12

4.37 ГБ

В этой теме нет новых непрочитанных сообщений. Новости с планеты Марс / Des nouvelles de la planète Mars [комедия, 2016] WEB-DLRip, Dub [iTunes]

salma3

414 | 22

1.48 ГБ

В этой теме нет новых непрочитанных сообщений. Вероника Марс / Veronica Mars (Роб Томас) [драма, комедия, криминал, 2014] BDRip 720p, Mvo+Sub

Dracon

155 | 16

5.32 ГБ

В этой теме нет новых непрочитанных сообщений. Новости с планеты Марс / Des nouvelles de la planète Mars [комедия, 2016] WEB-DLRip 720р, Dub [чистый звук]

salma3

189 | 136

3.24 ГБ

В этой теме нет новых непрочитанных сообщений. Миссия на Марс / Mission to Mars [антастика, триллер, драма, 2000] BDRip-AVC, Dub

salma3

0 | 0

2.18 ГБ

В этой теме нет новых непрочитанных сообщений. Экспедиция на Марс / Expedition Mars [документальный, исследование, космос, астрономия, 2016] TVRip, Dub

salma3

54 | 10

1.38 ГБ


Начать новую тему Ответить на тему  [ 1 сообщение ] 




Для Мосгорсуда, Роскомнадзора и рекламодателей:: mosgorsud-torrent[собачка]yandex.ru
cron