Торрент файл
скачать торрент магнет ссылка Добавлен: 10 окт 2017, 20:26
Размер: 746.42 МБ
Сидеров: 28
Личеров: 5
Статус: (salma3)
Автор

СообщениеДобавлено: 10 окт 2017, 20:26 

Не в сети
Супермодератор
Аватара пользователя
Дата регистрации:
15 фев 2012, 16:44
Возраст: 28
Спасибо: 7290 / 2147
Сообщения: 70489
Год выхода: 2000
Жанр: ужасы, фэнтези, триллер
Режиссер: Патрик Люссье / Patrick Lussier

В ролях: Кристофер Уокен, Винсент Спано, Кэйрен Энн Батлер, Брэд Дуриф, Джек МакГи, Скотт Клевердон

О фильме :
Война ангелов не закончилась. Восставшие намеривались изменить мировоздание во имя нового Властителя — Пириела. И на их пути оставалась последняя преграда — Дэниел, сын ангела и земной женщины. Именно его должен разыскать и уничтожить посланец небес Зофаэл. Судьба человечества зависела от единственного существа, но не настолько, что бы в одиночку противостоять воинам неба…



Страна: США
Продолжительность: 01:24:27
Перевод: Профессиональный (многоголосый закадровый)

Файл
Формат: MKV
Качество: HDRip-AVC
Видео: MPEG-4 AVC, 752x408, ~ 1158 Кбит/с
Аудио: AAC-LC, 2 ch, ~76 Кбит/с
Субтитры: русские, английские

Общее
Уникальный идентификатор : 172625651181156342507743608553568041894 (0x81DE7DB7483A3052847080E6F8297BA6)
Полное имя : D:MOVIESThe Prophecy III.2000.ExKinoRay.mkv
Формат : Matroska
Версия формата : Version 4 / Version 2
Размер файла : 746 Мбайт
Продолжительность : 1 ч. 24 м.
Общий поток : 1236 Кбит/сек
Дата кодирования : UTC 2017-10-10 15:25:09
Программа кодирования : mkvmerge v15.0.0 ('Duel with the Devil') 64-bit
Библиотека кодирования : libebml v1.3.5 + libmatroska v1.4.5

Видео
Идентификатор : 1
Формат : AVC
Формат/Информация : Advanced Video Codec
Профиль формата : High@L4.1
Параметр CABAC формата : Да
Параметр RefFrames формата : 10 кадров
Идентификатор кодека : V_MPEG4/ISO/AVC
Продолжительность : 1 ч. 24 м.
Битрейт : 1158 Кбит/сек
Ширина : 752 пикселя
Высота : 408 пикселей
Соотношение сторон : 1,85:1
Режим частоты кадров : Постоянный
Частота кадров : 24,000 кадра/сек
Цветовое пространство : YUV
Субдискретизация насыщенности : 4:2:0
Битовая глубина : 8 бит
Тип развёртки : Прогрессивная
Бит/(Пиксели*Кадры) : 0.157
Размер потока : 699 Мбайт (94%)
Библиотека кодирования : x264 core 152 r2851kMod ba24899
Настройки программы : cabac=1 / ref=10 / deblock=1:-1:-1 / analyse=0x3:0x113 / me=umh / subme=11 / psy=1 / fade_compensate=0.00 / psy_rd=1.00:0.05 / mixed_ref=1 / me_range=32 / chroma_me=1 / trellis=2 / 8x8dct=1 / cqm=0 / deadzone=21,11 / fast_pskip=0 / chroma_qp_offset=-3 / threads=6 / lookahead_threads=1 / sliced_threads=0 / nr=0 / decimate=0 / interlaced=0 / bluray_compat=0 / constrained_intra=0 / bframes=10 / b_pyramid=2 / b_adapt=2 / b_bias=0 / direct=3 / weightb=1 / open_gop=0 / weightp=2 / keyint=240 / keyint_min=23 / scenecut=40 / intra_refresh=0 / rc_lookahead=40 / rc=2pass / mbtree=1 / bitrate=1158 / ratetol=1.0 / qcomp=0.60 / qpmin=0 / qpmax=69 / qpstep=4 / cplxblur=20.0 / qblur=0.5 / vbv_maxrate=50000 / vbv_bufsize=62500 / nal_hrd=none / filler=0 / ip_ratio=1.40 / aq=3:1.00
Default : Да
Forced : Нет

Аудио
Идентификатор : 2
Формат : AAC
Формат/Информация : Advanced Audio Codec
Профиль формата : LC
Идентификатор кодека : A_AAC
Продолжительность : 1 ч. 24 м.
Битрейт : 76,0 Кбит/сек
Каналы : 2 канала
Расположение каналов : Front: L R
Частота : 48,0 КГц
Частота кадров : 46,875 кадров/сек (1024 SPF)
Метод сжатия : С потерями
Задержка видео : 9 мс.
Размер потока : 45,9 Мбайт (6%)
Язык : Russian
Default : Да
Forced : Нет

Текст #1
Идентификатор : 3
Формат : UTF-8
Идентификатор кодека : S_TEXT/UTF8
Идентификатор кодека/Информация : UTF-8 Plain Text
Продолжительность : 1 ч. 19 м.
Битрейт : 48 бит/сек
ElementCount : 421
Размер потока : 28,2 Кбайт (0%)
Заголовок : Русские
Язык : Russian
Default : Нет
Forced : Нет

Текст #2
Идентификатор : 4
Формат : UTF-8
Идентификатор кодека : S_TEXT/UTF8
Идентификатор кодека/Информация : UTF-8 Plain Text
Продолжительность : 1 ч. 17 м.
Битрейт : 29 бит/сек
ElementCount : 509
Размер потока : 16,8 Кбайт (0%)
Заголовок : English
Язык : English
Default : Нет
Forced : Нет

Меню
00:00:00.000 : en:00:00:00.000
00:06:10.708 : en:00:06:10.708
00:10:41.000 : en:00:10:41.000
00:14:56.708 : en:00:14:56.708
00:20:44.000 : en:00:20:44.000
00:24:51.083 : en:00:24:51.083
00:29:44.250 : en:00:29:44.250
00:34:22.625 : en:00:34:22.625
00:38:22.875 : en:00:38:22.875
00:43:59.416 : en:00:43:59.416
00:49:09.000 : en:00:49:09.000
00:56:00.041 : en:00:56:00.041
01:00:31.916 : en:01:00:31.916
01:05:51.416 : en:01:05:51.416
01:17:51.500 : en:01:17:51.500

Релиз от:


_________________
Проголосуй за трекер Открытый торрент трекер - RUS-MEDIA.ORG

Проголосуй Открытый торрент трекер - RUS-MEDIA.ORG


Вернуться к началу
 Профиль Отправить личное сообщение  
 
   Похожие торренты   Автор   Торрент   Размер 
В этой теме нет новых непрочитанных сообщений. Пророчество 2 / The Prophecy II [ужасы, фэнтези, триллер, 1998] HDRip-AVC, Mvo

salma3

16 | 1

746.6 МБ

В этой теме нет новых непрочитанных сообщений. Пророчество 2 / The Prophecy II [ужасы, фэнтези, триллер, 1998] BDRip-AVC, Mvo

salma3

45 | 33

2.18 ГБ

В этой теме нет новых непрочитанных сообщений. Исполнитель желаний 4: Пророчество сбылось / Wishmaster 4: The Prophecy Fulfilled [фэнтези, ужасы, 2002] WEB-DL 720p, Mvo

salma3

54 | 9

3.33 ГБ

В этой теме нет новых непрочитанных сообщений. Пророчество / The Prophecy [ужасы, боевик, триллер, 1995] BDRip 1080p, Mvo

salma3

16 | 11

6.94 ГБ

В этой теме нет новых непрочитанных сообщений. Пророчество / Prophecy [ужасы, фантастика, 1979] DVDRip, Mvo

salma3

75 | 24

1.46 ГБ

В этой теме нет новых непрочитанных сообщений. Пророчество 4: Восстание / The Prophecy 4: Uprising [Ужасы, мистика, 2005] DVDRip-AVC, Mvo

salma3

58 | 7

745.97 МБ

В этой теме нет новых непрочитанных сообщений. Что скрывает ложь / What Lies Beneath [ужасы, фэнтези, триллер, 2000] BDRip 720p, Dub

salma3

8 | 2

7.52 ГБ


Начать новую тему Ответить на тему  [ 1 сообщение ] 




Для Мосгорсуда, Роскомнадзора и рекламодателей:: mosgorsud-torrent[собачка]yandex.ru
cron