Торрент файл
скачать торрент магнет ссылка Добавлен: 10 окт 2017, 11:40
Размер: 1.46 ГБ
Сидеров: 16
Личеров: 1
Статус: (salma3)
Автор

СообщениеДобавлено: 10 окт 2017, 11:40 

Не в сети
Супермодератор
Аватара пользователя
Дата регистрации:
15 фев 2012, 16:44
Возраст: 28
Спасибо: 6593 / 2145
Сообщения: 44208
Год выхода: 2016
Жанр: комедия
Режиссер: Тома Соррио

В ролях: Меди Садун, Жерар Депардье, Шанталь Лоби, Барбара Кабрита, Патрик Тимси, Винсент Бауэн, Тео Фернандез, Винсент Н’Диайе

Описание: Максим Белло является одним из самых известных и высокооплачиваемых французских футболистов. У него много денег и масса поклонников. Но герой настолько же заносчив и самоуверен, насколько талантлив. На футбольном поле он настоящий профессионал, поражающий публику своим мастерством, но вне его он постоянно попадает в неприятности из-за своего непростого характера. Очередной инцидент вне поля становится для Максима настоящей трагедией — он по собственной глупости получает серьёзную травму ноги. Его карьера оказывается под угрозой, начинают ходить слухи, что он больше не сможет выйти на футбольное поле, и люди постепенно забывают о нём. Чтобы исправить пошатнувшуюся репутацию и перезапустить карьеру, агент предлагает ему отправиться в родную деревню, где до сих пор живёт его отец.



Страна: Франция
Продолжительность: 01:36:56
Перевод: Профессиональный (многоголосый, закадровый)[Кинопоказ HD2]

Качество: HDRip
Видео: 720x304 (2.35:1), 24.000 fps, XviD ~1 948 kbps avg
Аудио: 48.0 kHz, AC3 Dolby Digital, 2/0 (L,R) ch, ~192 kbps



General
Format : AVI
Format/Info : Audio Video Interleave
File size : 1.46 GiB
Duration : 1 h 36 min
Overall bit rate : 2 149 kb/s
Writing application : VirtualDubMod 1.5.10.3 | (build 2550/release)
Writing library : VirtualDubMod build 2550/release

Video
ID : 0
Format : MPEG-4 Visual
Format profile : Advanced Simple@L5
Format settings : BVOP1 / Custom Matrix
Format settings, BVOP : 1
Format settings, QPel : No
Format settings, GMC : No warppoints
Format settings, Matrix : Custom
Codec ID : XVID
Codec ID/Hint : XviD
Duration : 1 h 36 min
Bit rate : 1 948 kb/s
Width : 720 pixels
Height : 304 pixels
Display aspect ratio : 2.35:1
Frame rate : 24.000 FPS
Color space : YUV
Chroma subsampling : 4:2:0
Bit depth : 8 bits
Scan type : Progressive
Compression mode : Lossy
Bits/(Pixel*Frame) : 0.371
Stream size : 1.32 GiB (91%)
Writing library : XviD 73

Audio
ID : 1
Format : AC-3
Format/Info : Audio Coding 3
Format settings, Endianness : Big
Codec ID : 2000
Duration : 1 h 36 min
Bit rate mode : Constant
Bit rate : 192 kb/s
Channel(s) : 2 channels
Channel positions : Front: L R
Sampling rate : 48.0 kHz
Frame rate : 31.250 FPS (1536 SPF)
Bit depth : 16 bits
Compression mode : Lossy
Stream size : 133 MiB (9%)
Alignment : Split accross interleaves
Interleave, duration : 42 ms (1.00 video frame)
Interleave, preload duratio : 500 ms
Service kind : Complete Main


_________________
Проголосуй за трекер Открытый торрент трекер - RUS-MEDIA.ORG

Проголосуй Открытый торрент трекер - RUS-MEDIA.ORG



реклама партнёра


Вернуться к началу
 Профиль Отправить личное сообщение  
 
   Похожие торренты   Автор   Торрент   Размер 
В этой теме нет новых непрочитанных сообщений. Команда мечты / La Dream Team [комедия, 2016] BDRip 720p, Mvo

salma3

70 | 25

4.26 ГБ

В этой теме нет новых непрочитанных сообщений. Команда мечты / La Dream Team [комедия, 2016] WEB-DLRip, Mvo [Официальный звук]

salma3

352 | 57

1.37 ГБ

В этой теме нет новых непрочитанных сообщений. Команда мечты / The Dream Team [комедия, 1989] WEB-DL 1080p, Mvo+Avo+Sub

salma3

33 | 4

4.7 ГБ

В этой теме нет новых непрочитанных сообщений. Команда мечты / The Dream Team [комедия, 1989] BDRip 720p, Mvo+Avo+Sub

salma3

19 | 0

5.48 ГБ

В этой теме нет новых непрочитанных сообщений. Призрачная команда / Ghost Team [комедия, 2016] WEB-DLRip, Mvo

salma3

1836 | 666

1.37 ГБ

В этой теме нет новых непрочитанных сообщений. Призрачная команда / Ghost Team [комедия, 2016] WEB-DLRip 720р, Mvo

salma3

632 | 264

2.73 ГБ

В этой теме нет новых непрочитанных сообщений. Лазерная команда / Lazer Team [фантастика, боевик, комедия, 2015] HDRip, Mvo

salma3

247 | 105

1.46 ГБ


Начать новую тему Ответить на тему  [ 1 сообщение ] 




Для Мосгорсуда, Роскомнадзора и рекламодателей:: mosgorsud-torrent[собачка]yandex.ru